<?xml version="1.0" standalone="no"?>
<!DOCTYPE svg PUBLIC "-//W3C//DTD SVG 1.1//EN" "http://www.w3.org/Graphics/SVG/1.1/DTD/svg11.dtd">
<svg xmlns="http://www.w3.org/2000/svg">
 <metadata><json><![CDATA[{
"font":        "jquery-ui",
"version":     "Version 2.1"
"copyright":   "© 2015-2017 Michael Keck",
"description": "Font for jQuery-UI - Font generated with IcoMoon.",
"license":     "CC BY-SA 3.0; https://creativecommons.org/licenses/by-sa/3.0/"
}]]></json></metadata>
 <defs>
  <font id="jquery-ui" horiz-adv-x="1024">
   <font-face units-per-em="1024" ascent="1024" descent="0" />
   <missing-glyph horiz-adv-x="1024" />
   <glyph unicode="&#x20;" horiz-adv-x="512" d="" />
   <glyph unicode="&#xe601;" d="M804.535 585.152c0 4.864-1.938 9.508-5.339 12.945l-274.286 274.269c-7.131 7.131-18.725 7.131-25.856 0l-274.286-274.269c-3.438-3.437-5.339-8.082-5.339-12.945v-127.992c0-16.273 19.712-24.428 31.232-12.945l188.197 188.185v-449.544c0-20.259 16.311-36.569 36.571-36.569h73.143c20.261 0 36.571 16.31 36.571 36.569v449.544l188.197-188.185c11.52-11.519 31.195-3.364 31.232 12.945z" /><glyph unicode="&#xe602;" d="M799.415 385.621c3.437 3.438 5.339 8.082 5.339 12.946v387.913c0 10.094-8.191 18.286-18.285 18.286h-387.888c-4.864 0-9.508-1.938-12.945-5.339l-90.508-90.514c-11.519-11.52-3.364-31.195 12.945-31.232h266.149l-317.895-317.915c-14.335-14.336-14.335-37.376 0-51.712l51.709-51.712c14.335-14.336 37.374-14.336 51.709 0l317.895 317.915v-266.167c0-16.274 19.674-24.43 31.23-12.946z" /><glyph unicode="&#xe603;" d="M585.152 219.465c4.864 0 9.508 1.938 12.945 5.339l274.269 274.286c7.131 7.131 7.131 18.725 0 25.856l-274.269 274.286c-3.437 3.438-8.082 5.339-12.945 5.339h-127.992c-16.273 0-24.428-19.712-12.945-31.232l188.185-188.197h-449.544c-20.259 0-36.569-16.311-36.569-36.571v-73.143c0-20.261 16.31-36.571 36.569-36.571h449.544l-188.185-188.197c-11.519-11.52-3.364-31.195 12.945-31.232z" /><glyph unicode="&#xe604;" d="M799.415 638.574c3.437-3.438 5.339-8.082 5.339-12.946v-387.913c0-10.094-8.191-18.286-18.285-18.286h-387.888c-4.864 0-9.508 1.938-12.945 5.339l-90.508 90.514c-11.519 11.52-3.364 31.195 12.945 31.232h266.149l-317.895 317.915c-14.335 14.336-14.335 37.376 0 51.712l51.709 51.712c14.335 14.336 37.374 14.336 51.709 0l317.895-317.915v266.167c0 16.274 19.674 24.43 31.23 12.946z" /><glyph unicode="&#xe605;" d="M219.465 438.848c0-4.864 1.938-9.508 5.339-12.945l274.286-274.269c7.131-7.131 18.725-7.131 25.856 0l274.286 274.269c3.438 3.437 5.339 8.082 5.339 12.945v127.992c0 16.273-19.712 24.428-31.232 12.945l-188.197-188.185v449.544c0 20.259-16.311 36.569-36.571 36.569h-73.143c-20.261 0-36.571-16.31-36.571-36.569v-449.544l-188.197 188.185c-11.52 11.519-31.195 3.364-31.232-12.945z" /><glyph unicode="&#xe606;" d="M224.768 638.574c-3.437-3.438-5.339-8.082-5.339-12.946v-387.913c0-10.094 8.191-18.286 18.285-18.286h387.888c4.864 0 9.508 1.938 12.945 5.339l90.508 90.514c11.519 11.52 3.364 31.195-12.945 31.232h-266.149l317.895 317.915c14.335 14.336 14.335 37.376 0 51.712l-51.709 51.712c-14.335 14.336-37.374 14.336-51.709 0l-317.895-317.915v266.167c0 16.274-19.674 24.43-31.23 12.946z" /><glyph unicode="&#xe607;" d="M438.848 804.535c-4.864 0-9.508-1.938-12.945-5.339l-274.269-274.286c-7.131-7.131-7.131-18.725 0-25.856l274.269-274.286c3.437-3.438 8.082-5.339 12.945-5.339h127.992c16.273 0 24.428 19.712 12.945 31.232l-188.185 188.197h449.544c20.259 0 36.569 16.311 36.569 36.571v73.143c0 20.261-16.31 36.571-36.569 36.571h-449.544l188.185 188.197c11.519 11.52 3.364 31.195-12.945 31.232z" /><glyph unicode="&#xe608;" d="M224.768 385.609c-3.437 3.438-5.339 8.082-5.339 12.946v387.913c0 10.094 8.191 18.286 18.285 18.286h387.888c4.864 0 9.508-1.938 12.945-5.339l90.508-90.514c11.519-11.52 3.364-31.195-12.945-31.232h-266.149l317.895-317.915c14.335-14.336 14.335-37.376 0-51.712l-51.709-51.712c-14.335-14.336-37.374-14.336-51.709 0l-317.895 317.915v-266.167c0-16.274-19.674-24.43-31.23-12.946z" /><glyph unicode="&#xe609;" d="M146.286 841.147c0-20.26 16.311-36.57 36.571-36.57h658.286c20.261 0 36.571 16.31 36.571 36.57v73.14c0 20.26-16.311 36.57-36.571 36.57h-658.286c-20.261 0-36.571-16.31-36.571-36.57zM512 804.578c-4.681 0-9.362-1.792-12.946-5.339l-274.286-274.274c-3.438-3.438-5.339-8.082-5.339-12.946v-127.995c0-16.274 19.712-24.429 31.232-12.946l188.197 188.189v-449.554c0-20.26 16.311-36.57 36.571-36.57h73.143c20.261 0 36.571 16.31 36.571 36.57v449.554l188.197-188.189c11.52-11.52 31.195-3.364 31.232 12.946v127.995c0 4.864-1.938 9.508-5.339 12.946l-274.286 274.274c-3.584 3.584-8.265 5.339-12.946 5.339z" /><glyph unicode="&#xe60a;" d="M841.147 877.714c-20.26 0-36.57-16.311-36.57-36.571v-658.286c0-20.261 16.31-36.571 36.57-36.571h73.14c20.26 0 36.57 16.311 36.57 36.571v658.286c0 20.261-16.31 36.571-36.57 36.571zM804.578 512c0 4.681-1.792 9.362-5.339 12.946l-274.274 274.286c-3.438 3.438-8.082 5.339-12.946 5.339h-127.995c-16.274 0-24.429-19.712-12.946-31.232l188.189-188.197h-449.554c-20.26 0-36.57-16.311-36.57-36.571v-73.143c0-20.261 16.31-36.571 36.57-36.571h449.554l-188.189-188.197c-11.52-11.52-3.364-31.195 12.946-31.232h127.995c4.864 0 9.508 1.938 12.946 5.339l274.274 274.286c3.584 3.584 5.339 8.265 5.339 12.946z" /><glyph unicode="&#xe60b;" d="M877.714 182.853c0 20.26-16.311 36.57-36.571 36.57h-658.286c-20.261 0-36.571-16.31-36.571-36.57v-73.14c0-20.26 16.311-36.57 36.571-36.57h658.286c20.261 0 36.571 16.31 36.571 36.57zM512 219.422c4.681 0 9.362 1.792 12.946 5.339l274.286 274.274c3.438 3.438 5.339 8.082 5.339 12.946v127.995c0 16.274-19.712 24.429-31.232 12.946l-188.197-188.189v449.554c0 20.26-16.311 36.57-36.571 36.57h-73.143c-20.261 0-36.571-16.31-36.571-36.57v-449.554l-188.197 188.189c-11.52 11.52-31.195 3.364-31.232-12.946v-127.995c0-4.864 1.938-9.508 5.339-12.946l274.286-274.274c3.584-3.584 8.265-5.339 12.946-5.339z" /><glyph unicode="&#xe60c;" d="M182.853 877.714c20.26 0 36.57-16.311 36.57-36.571v-658.286c0-20.261-16.31-36.571-36.57-36.571h-73.14c-20.26 0-36.57 16.311-36.57 36.571v658.286c0 20.261 16.31 36.571 36.57 36.571zM219.422 512c0 4.681 1.792 9.362 5.339 12.946l274.274 274.286c3.438 3.438 8.082 5.339 12.946 5.339h127.995c16.274 0 24.429-19.712 12.946-31.232l-188.189-188.197h449.554c20.26 0 36.57-16.311 36.57-36.571v-73.143c0-20.261-16.31-36.571-36.57-36.571h-449.554l188.189-188.197c11.52-11.52 3.364-31.195-12.946-31.232h-127.995c-4.864 0-9.508 1.938-12.946 5.339l-274.274 274.286c-3.584 3.584-5.339 8.265-5.339 12.946z" /><glyph unicode="&#xe60d;" d="M804.571 457.16c0-16.273-19.712-24.428-31.232-12.945l-188.197 188.185v-193.56c0-160.721-131.84-292.553-292.571-292.553-36.571 0-73.143 0-73.143 36.569v73.138c0 36.569 36.571 36.569 73.143 36.569 81.664 0 146.286 64.618 146.286 146.277v193.56l-188.197-188.185c-11.52-11.519-31.195-3.364-31.232 12.945v127.992c0 4.864 1.938 9.508 5.339 12.945l274.286 274.269c7.131 7.131 18.725 7.131 25.856 0l274.286-274.269c3.438-3.437 5.339-8.082 5.339-12.945z" /><glyph unicode="&#xe60e;" d="M457.16 804.571c-16.273 0-24.428-19.712-12.945-31.232l188.185-188.197h-193.56c-160.721 0-292.553-131.84-292.553-292.571 0-36.571 0-73.143 36.569-73.143h73.138c36.569 0 36.569 36.571 36.569 73.143 0 81.664 64.618 146.286 146.277 146.286h193.56l-188.185-188.197c-11.519-11.52-3.364-31.195 12.945-31.232h127.992c4.864 0 9.508 1.938 12.945 5.339l274.269 274.286c7.131 7.131 7.131 18.725 0 25.856l-274.269 274.286c-3.437 3.438-8.082 5.339-12.945 5.339z" /><glyph unicode="&#xe60f;" d="M219.429 566.84c0 16.273 19.712 24.428 31.232 12.945l188.197-188.185v193.56c0 160.721 131.84 292.553 292.571 292.553 36.571 0 73.143 0 73.143-36.569v-73.138c0-36.569-36.571-36.569-73.143-36.569-81.664 0-146.286-64.618-146.286-146.277v-193.56l188.197 188.185c11.52 11.519 31.195 3.364 31.232-12.945v-127.992c0-4.864-1.938-9.508-5.339-12.945l-274.286-274.269c-7.131-7.131-18.725-7.131-25.856 0l-274.286 274.269c-3.438 3.437-5.339 8.082-5.339 12.945z" /><glyph unicode="&#xe610;" d="M566.84 804.571c16.273 0 24.428-19.712 12.945-31.232l-188.185-188.197h193.56c160.721 0 292.553-131.84 292.553-292.571 0-36.571 0-73.143-36.569-73.143h-73.138c-36.569 0-36.569 36.571-36.569 73.143 0 81.664-64.618 146.286-146.277 146.286h-193.56l188.185-188.197c11.519-11.52 3.364-31.195-12.945-31.232h-127.992c-4.864 0-9.508 1.938-12.945 5.339l-274.269 274.286c-7.131 7.131-7.131 18.725 0 25.856l274.269 274.286c3.437 3.438 8.082 5.339 12.945 5.339z" /><glyph unicode="&#xe611;" d="M475.465 950.857c20.261 0 36.571-16.311 36.571-36.571v-73.143c0-20.261-16.311-36.571-36.571-36.571h-36.571c-161.573 0-292.571-130.999-292.571-292.571s130.999-292.571 292.571-292.571 292.571 130.999 292.571 292.571v47.287l-115.054-115.054c-3.328-3.328-7.899-5.376-12.946-5.376-10.094 0-18.286 8.192-18.286 18.286v128.073c0 5.047 2.048 9.618 5.339 12.91l201.143 201.143c3.291 3.291 7.863 5.339 12.91 5.339 5.713 0.055 9.532-2.041 13.019-5.413l201.070-201.070c3.291-3.291 5.339-7.863 5.339-12.91v-128.073c0-10.094-8.192-18.286-18.286-18.286-5.047 0-9.618 2.048-12.946 5.376l-115.054 115.054v-47.287c0-242.359-196.498-438.857-438.857-438.857s-438.857 196.498-438.857 438.857 196.498 438.857 438.857 438.857z" /><glyph unicode="&#xe612;" d="M950.857 475.465c0 20.261-16.311 36.571-36.571 36.571h-73.143c-20.261 0-36.571-16.311-36.571-36.571v-36.571c0-161.573-130.999-292.571-292.571-292.571s-292.571 130.999-292.571 292.571 130.999 292.571 292.571 292.571h47.287l-115.054-115.054c-3.328-3.328-5.376-7.899-5.376-12.946 0-10.094 8.192-18.286 18.286-18.286h128.073c5.047 0 9.618 2.048 12.91 5.339l201.143 201.143c3.291 3.291 5.339 7.863 5.339 12.91 0.055 5.713-2.041 9.532-5.413 13.019l-201.070 201.070c-3.291 3.291-7.863 5.339-12.91 5.339h-128.073c-10.094 0-18.286-8.192-18.286-18.286 0-5.047 2.048-9.618 5.376-12.946l115.054-115.054h-47.287c-242.359 0-438.857-196.498-438.857-438.857s196.498-438.857 438.857-438.857 438.857 196.498 438.857 438.857c0 12.203 0 24.405 0 36.608z" /><glyph unicode="&#xe613;" d="M548.535 73.143c-20.261 0-36.571 16.311-36.571 36.571v73.143c0 20.261 16.311 36.571 36.571 36.571h36.571c161.573 0 292.571 130.999 292.571 292.571s-130.999 292.571-292.571 292.571-292.571-130.999-292.571-292.571v-47.287l115.054 115.054c3.328 3.328 7.899 5.376 12.946 5.376 10.094 0 18.286-8.192 18.286-18.286v-128.073c0-5.047-2.048-9.618-5.339-12.91l-201.143-201.143c-3.291-3.291-7.863-5.339-12.91-5.339-5.713-0.055-9.532 2.041-13.019 5.413l-201.070 201.070c-3.291 3.291-5.339 7.863-5.339 12.91v128.073c0 10.094 8.192 18.286 18.286 18.286 5.047 0 9.618-2.048 12.946-5.376l115.054-115.054v47.287c0 242.359 196.498 438.857 438.857 438.857s438.857-196.498 438.857-438.857-196.498-438.857-438.857-438.857c-12.203 0-24.405 0-36.608 0z" /><glyph unicode="&#xe614;" d="M73.143 475.465c0 20.261 16.311 36.571 36.571 36.571h73.143c20.261 0 36.571-16.311 36.571-36.571v-36.571c0-161.573 130.999-292.571 292.571-292.571s292.571 130.999 292.571 292.571-130.999 292.571-292.571 292.571h-47.287l115.054-115.054c3.328-3.328 5.376-7.899 5.376-12.946 0-10.094-8.192-18.286-18.286-18.286h-128.073c-5.047 0-9.618 2.048-12.91 5.339l-201.143 201.143c-3.291 3.291-5.339 7.863-5.339 12.91-0.055 5.713 2.041 9.532 5.413 13.019l201.070 201.070c3.291 3.291 7.863 5.339 12.91 5.339h128.073c10.094 0 18.286-8.192 18.286-18.286 0-5.047-2.048-9.618-5.376-12.946l-115.054-115.054h47.287c242.359 0 438.857-196.498 438.857-438.857s-196.498-438.857-438.857-438.857-438.857 196.498-438.857 438.857c0 12.203 0 24.405 0 36.608z" /><glyph unicode="&#xe615;" d="M804.571 731.464c0 4.864-1.938 9.508-5.34 12.945l-274.303 274.261c-7.132 7.131-18.726 7.131-25.858 0l-274.303-274.261c-3.438-3.437-5.34-8.082-5.34-12.945v-127.989c0-16.273 19.713-24.428 31.234-12.945l188.208 188.18v-533.383l-188.208 188.18c-11.521 11.519-31.197 3.364-31.234-12.945v-127.989c0-4.864 1.938-9.508 5.34-12.945l274.303-274.261c7.132-7.131 18.726-7.131 25.858 0l274.303 274.261c3.438 3.437 5.34 8.082 5.34 12.945v127.989c0 16.273-19.713 24.428-31.234 12.945l-188.208-188.18v533.383l188.208-188.18c11.521-11.519 31.197-3.364 31.234 12.945z" /><glyph unicode="&#xe616;" d="M471.463 877.696c-4.864 0-9.508-1.938-12.946-5.376l-90.583-90.51c-11.519-11.519-3.364-31.23 12.946-31.23h266.263l-373.741-373.741v266.263c0 16.273-19.711 24.428-31.23 12.946l-90.51-90.51c-3.438-3.438-5.376-8.082-5.376-12.946v-388.040c0-10.093 8.192-18.285 18.285-18.285h388.040c4.864 0 9.508 1.938 12.946 5.376l90.51 90.51c11.519 11.519 3.364 31.23-12.946 31.23h-266.263l373.741 373.741v-266.263c0-16.273 19.711-24.428 31.23-12.946l90.51 90.583c3.438 3.438 5.376 8.082 5.376 12.946v387.967c0 10.093-8.192 18.285-18.285 18.285z" /><glyph unicode="&#xe617;" d="M292.554 804.59c-4.864 0-9.508-1.938-12.945-5.34l-274.261-274.303c-7.131-7.132-7.131-18.726 0-25.858l274.261-274.303c3.437-3.438 8.082-5.34 12.945-5.34h127.989c16.273 0 24.428 19.713 12.945 31.234l-188.18 188.208h533.383l-188.18-188.208c-11.519-11.521-3.364-31.197 12.945-31.234h127.989c4.864 0 9.508 1.938 12.945 5.34l274.261 274.303c7.131 7.132 7.131 18.726 0 25.858l-274.261 274.303c-3.437 3.438-8.082 5.34-12.945 5.34h-127.989c-16.273 0-24.428-19.713-12.945-31.234l188.18-188.208h-533.383l188.18 188.208c11.519 11.521 3.364 31.197-12.945 31.234z" /><glyph unicode="&#xe618;" d="M552.537 877.696c4.864 0 9.508-1.938 12.946-5.376l90.583-90.51c11.519-11.519 3.364-31.23-12.946-31.23h-266.263l373.741-373.741v266.263c0 16.273 19.711 24.428 31.23 12.946l90.51-90.51c3.438-3.438 5.376-8.082 5.376-12.946v-388.040c0-10.093-8.192-18.285-18.285-18.285h-388.040c-4.864 0-9.508 1.938-12.946 5.376l-90.51 90.51c-11.519 11.519-3.364 31.23 12.946 31.23h266.263l-373.741 373.741v-266.263c0-16.273-19.711-24.428-31.23-12.946l-90.51 90.583c-3.438 3.438-5.376 8.082-5.376 12.946v387.967c0 10.093 8.192 18.285 18.285 18.285z" /><glyph unicode="&#xe619;" d="M512 1024c-5.083 0-9.637-2.066-12.929-5.357l-182.857-182.857c-3.328-3.328-5.429-7.882-5.429-12.929 0-10.094 8.263-18.286 18.357-18.286h109.714v-219.429h-219.429v109.714c0 10.094-8.192 18.357-18.286 18.357-5.047 0-9.601-2.101-12.929-5.429l-182.857-182.857c-3.291-3.328-5.357-7.882-5.357-12.929s2.066-9.601 5.357-12.929l182.857-182.857c3.328-3.328 7.882-5.429 12.929-5.429 10.094 0 18.286 8.263 18.286 18.357v109.714h219.429v-219.429h-109.714c-10.094 0-18.357-8.192-18.357-18.286 0-5.047 2.101-9.601 5.429-12.929l182.857-182.857c3.291-3.291 7.845-5.357 12.929-5.357s9.601 2.066 12.929 5.357l182.857 182.857c3.328 3.328 5.429 7.882 5.429 12.929 0 10.094-8.263 18.286-18.357 18.286h-109.714v219.429h219.429v-109.714c0-10.094 8.192-18.357 18.286-18.357 5.047 0 9.601 2.101 12.929 5.429l182.857 182.857c3.291 3.291 5.357 7.845 5.357 12.929s-2.066 9.637-5.357 12.929l-182.857 182.857c-3.328 3.328-7.882 5.429-12.929 5.429-10.094 0-18.286-8.263-18.286-18.357v-109.714h-219.429v219.429h109.714c10.094 0 18.357 8.192 18.357 18.286 0 5.047-2.101 9.601-5.429 12.929l-182.857 182.857c-3.328 3.291-7.845 5.357-12.929 5.357z" /><glyph unicode="&#xe61a;" d="M18.249 1024.037c-10.094 0-18.286-8.192-18.286-18.286v-310.894c0-10.094 8.192-18.286 18.286-18.286 5.047 0 9.618 2.048 12.946 5.376l96.768 96.768 266.715-266.715-266.715-266.715-96.768 96.768c-3.328 3.328-7.899 5.376-12.946 5.376-10.094 0-18.286-8.192-18.286-18.286v-310.894c0-10.094 8.192-18.286 18.286-18.286h310.894c10.094 0 18.286 8.192 18.286 18.286 0 5.047-2.048 9.618-5.376 12.946l-96.768 96.768 266.715 266.715 266.715-266.715-96.768-96.768c-3.328-3.328-5.376-7.899-5.376-12.946 0-10.094 8.192-18.286 18.286-18.286h310.894c10.094 0 18.286 8.192 18.286 18.286v310.894c0 10.094-8.192 18.286-18.286 18.286-5.047 0-9.618-2.048-12.946-5.376l-96.768-96.768-266.789 266.789 263.424 266.789 100.352-97.134c3.291-3.182 7.79-5.157 12.727-5.157 10.094 0 18.286 8.192 18.286 18.286v310.857c0 10.094-8.192 18.286-18.286 18.286h-310.894c-10.094 0-18.286-8.192-18.286-18.286 0-5.047 2.048-9.618 5.376-12.946l96.768-96.768-266.715-266.715-266.715 266.715 96.768 96.768c3.328 3.328 5.376 7.899 5.376 12.946 0 10.094-8.192 18.286-18.286 18.286-103.615 0.046-207.343-0.081-310.894 0.037z" /><glyph unicode="&#xe61b;" d="M804.571 530.286c0-10.131-8.191-18.271-18.321-18.271h-127.992v-329.156c0-20.261-16.31-36.573-36.569-36.573h-219.415c-20.259 0-36.569 16.312-36.569 36.573v329.156h-127.992c-10.13 0-18.285 8.156-18.285 18.286v18.271c0.219 4.498 2.158 9.744 5.376 12.926l274.269 274.297c7.131 7.132 18.723 7.132 25.854 0l274.269-274.297c3.182-3.218 5.12-8.428 5.376-12.926z" /><glyph unicode="&#xe61c;" d="M372.426 786.282c-7.169-7.169-7.169-18.692 0-25.861l90.526-90.531-232.77-232.784c-14.338-14.339-14.338-37.383 0-51.722l155.192-155.202c14.338-14.339 37.381-14.339 51.718 0l232.77 232.784 90.526-90.531c7.169-7.169 18.69-7.169 25.859 0l13.46 13.753c2.999 3.365 4.865 7.608 4.865 12.107v387.986c0 10.096-8.193 18.289-18.288 18.289h-387.962c-4.535 0-8.778-1.829-12.107-4.865z" /><glyph unicode="&#xe61d;" d="M530.286 804.571c-10.131 0-18.271-8.191-18.271-18.321v-127.992h-329.156c-20.261 0-36.573-16.31-36.573-36.569v-219.415c0-20.259 16.312-36.569 36.573-36.569h329.156v-127.992c0-10.13 8.156-18.285 18.286-18.285h18.271c4.498 0.219 9.744 2.158 12.926 5.376l274.297 274.269c7.132 7.131 7.132 18.723 0 25.854l-274.297 274.269c-3.218 3.182-8.428 5.12-12.926 5.376z" /><glyph unicode="&#xe61e;" d="M786.282 651.574c-7.169 7.169-18.692 7.169-25.861 0l-90.531-90.526-232.784 232.77c-14.339 14.338-37.383 14.338-51.722 0l-155.202-155.192c-14.339-14.338-14.339-37.381 0-51.718l232.784-232.77-90.531-90.526c-7.169-7.169-7.169-18.69 0-25.859l13.753-13.46c3.365-2.999 7.608-4.865 12.107-4.865h387.986c10.096 0 18.289 8.193 18.289 18.288v387.962c0 4.535-1.829 8.778-4.865 12.107z" /><glyph unicode="&#xe61f;" d="M804.571 493.714c0 10.131-8.191 18.271-18.321 18.271h-127.992v329.156c0 20.261-16.31 36.573-36.569 36.573h-219.415c-20.259 0-36.569-16.312-36.569-36.573v-329.156h-127.992c-10.13 0-18.285-8.156-18.285-18.286v-18.271c0.219-4.498 2.158-9.744 5.376-12.926l274.269-274.297c7.131-7.132 18.723-7.132 25.854 0l274.269 274.297c3.182 3.218 5.12 8.428 5.376 12.926z" /><glyph unicode="&#xe620;" d="M651.574 237.718c7.169 7.169 7.169 18.692 0 25.861l-90.526 90.531 232.77 232.784c14.338 14.339 14.338 37.383 0 51.722l-155.192 155.202c-14.338 14.339-37.381 14.339-51.718 0l-232.77-232.784-90.526 90.531c-7.169 7.169-18.69 7.169-25.859 0l-13.46-13.753c-2.999-3.365-4.865-7.608-4.865-12.107v-387.986c0-10.096 8.193-18.289 18.288-18.289h387.962c4.535 0 8.778 1.829 12.107 4.865z" /><glyph unicode="&#xe621;" d="M493.714 804.571c10.131 0 18.271-8.191 18.271-18.321v-127.992h329.156c20.261 0 36.573-16.31 36.573-36.569v-219.415c0-20.259-16.312-36.569-36.573-36.569h-329.156v-127.992c0-10.13-8.156-18.285-18.286-18.285h-18.271c-4.498 0.219-9.744 2.158-12.926 5.376l-274.297 274.269c-7.132 7.131-7.132 18.723 0 25.854l274.297 274.269c3.218 3.182 8.428 5.12 12.926 5.376z" /><glyph unicode="&#xe622;" d="M237.718 372.426c7.169-7.169 18.692-7.169 25.861 0l90.531 90.526 232.784-232.77c14.339-14.338 37.383-14.338 51.722 0l155.202 155.192c14.339 14.338 14.339 37.381 0 51.718l-232.784 232.77 90.531 90.526c7.169 7.169 7.169 18.69 0 25.859l-13.753 13.46c-3.365 2.999-7.608 4.865-12.107 4.865h-387.986c-10.096 0-18.289-8.193-18.289-18.288v-387.962c0-4.535 1.829-8.778 4.865-12.107z" /><glyph unicode="&#xe623;" d="M146.286 841.143c0-20.261 16.311-36.571 36.571-36.571h658.286c20.261 0 36.571 16.311 36.571 36.571v73.143c0 20.261-16.311 36.571-36.571 36.571h-658.286c-20.261 0-36.571-16.311-36.571-36.571zM219.429 457.143c0-10.13 8.155-18.286 18.286-18.286h128v-329.143c0-20.261 16.311-36.571 36.571-36.571h219.429c20.261 0 36.571 16.311 36.571 36.571v329.143h128c10.13 0 18.286 8.155 18.286 18.286v18.286c-0.219 4.498-2.158 9.728-5.376 12.91l-274.286 274.286c-7.131 7.131-18.725 7.131-25.856 0l-274.286-274.286c-3.715-3.233-5.289-8.498-5.339-12.91z" /><glyph unicode="&#xe624;" d="M841.143 877.714c-20.261 0-36.571-16.311-36.571-36.571v-658.286c0-20.261 16.311-36.571 36.571-36.571h73.143c20.261 0 36.571 16.311 36.571 36.571v658.286c0 20.261-16.311 36.571-36.571 36.571zM457.143 804.571c-10.13 0-18.286-8.155-18.286-18.286v-128h-329.143c-20.261 0-36.571-16.311-36.571-36.571v-219.429c0-20.261 16.311-36.571 36.571-36.571h329.143v-128c0-10.13 8.155-18.286 18.286-18.286h18.286c4.498 0.219 9.728 2.158 12.91 5.376l274.286 274.286c7.131 7.131 7.131 18.725 0 25.856l-274.286 274.286c-3.233 3.715-8.498 5.289-12.91 5.339z" /><glyph unicode="&#xe625;" d="M877.714 182.857c0 20.261-16.311 36.571-36.571 36.571h-658.286c-20.261 0-36.571-16.311-36.571-36.571v-73.143c0-20.261 16.311-36.571 36.571-36.571h658.286c20.261 0 36.571 16.311 36.571 36.571zM804.571 566.857c0 10.13-8.155 18.286-18.286 18.286h-128v329.143c0 20.261-16.311 36.571-36.571 36.571h-219.429c-20.261 0-36.571-16.311-36.571-36.571v-329.143h-128c-10.13 0-18.286-8.155-18.286-18.286v-18.286c0.219-4.498 2.158-9.728 5.376-12.91l274.286-274.286c7.131-7.131 18.725-7.131 25.856 0l274.286 274.286c3.715 3.233 5.289 8.498 5.339 12.91z" /><glyph unicode="&#xe626;" d="M182.857 146.286c20.261 0 36.571 16.311 36.571 36.571v658.286c0 20.261-16.311 36.571-36.571 36.571h-73.143c-20.261 0-36.571-16.311-36.571-36.571v-658.286c0-20.261 16.311-36.571 36.571-36.571zM566.857 219.429c10.13 0 18.286 8.155 18.286 18.286v128h329.143c20.261 0 36.571 16.311 36.571 36.571v219.429c0 20.261-16.311 36.571-36.571 36.571h-329.143v128c0 10.13-8.155 18.286-18.286 18.286h-18.286c-4.498-0.219-9.728-2.158-12.91-5.376l-274.286-274.286c-7.131-7.131-7.131-18.725 0-25.856l274.286-274.286c3.233-3.715 8.498-5.289 12.91-5.339z" /><glyph unicode="&#xe627;" d="M950.617 603.446c0-10.131-8.171-18.286-18.299-18.286h-127.962v-36.573c0-262.591-212.783-475.444-475.289-475.444h-219.364c-20.255 0-36.561 16.311-36.561 36.573v219.436c0 20.261 16.306 36.573 36.561 36.573h219.364c100.944 0 182.803 81.886 182.803 182.863v36.573h-127.962c-10.127 0-18.28 8.156-18.28 18.286-0.183 6.246-0.048 13.365 0.018 19.201 0.219 4.498 2.139 8.814 5.356 11.996l274.205 274.295c7.129 7.132 18.719 7.132 25.848 0l274.205-274.295c3.181-3.182 5.1-8.43 5.356-12.928 0.537-6.385 0.005-12.885 0-18.268z" /><glyph unicode="&#xe628;" d="M603.446 950.599c-10.131 0-18.286-8.171-18.286-18.299v-127.962h-36.573c-262.591 0-475.444-212.783-475.444-475.289v-219.364c0-20.255 16.311-36.561 36.573-36.561h219.436c20.261 0 36.573 16.306 36.573 36.561v219.364c0 100.944 81.886 182.803 182.863 182.803h36.573v-127.962c0-10.127 8.156-18.28 18.286-18.28 6.246-0.184 13.365-0.048 19.201 0.018 4.498 0.219 8.814 2.139 11.996 5.356l274.295 274.205c7.132 7.129 7.132 18.719 0 25.848l-274.295 274.205c-3.182 3.181-8.43 5.1-12.928 5.356-6.385 0.537-12.885 0.005-18.268 0z" /><glyph unicode="&#xe629;" d="M73.383 420.554c0 10.131 8.171 18.286 18.299 18.286h127.962v36.573c0 262.591 212.783 475.444 475.289 475.444h219.364c20.255 0 36.561-16.311 36.561-36.573v-219.436c0-20.261-16.306-36.573-36.561-36.573h-219.364c-100.944 0-182.803-81.886-182.803-182.863v-36.573h127.962c10.127 0 18.28-8.156 18.28-18.286 0.184-6.246 0.048-13.365-0.018-19.201-0.219-4.498-2.139-8.814-5.356-11.996l-274.205-274.295c-7.129-7.132-18.719-7.132-25.848 0l-274.205 274.295c-3.181 3.182-5.1 8.43-5.356 12.928-0.537 6.385-0.005 12.885 0 18.268z" /><glyph unicode="&#xe62a;" d="M420.554 950.599c10.131 0 18.286-8.171 18.286-18.299v-127.962h36.573c262.591 0 475.444-212.783 475.444-475.289v-219.364c0-20.255-16.311-36.561-36.573-36.561h-219.436c-20.261 0-36.573 16.306-36.573 36.561v219.364c0 100.944-81.886 182.803-182.863 182.803h-36.573v-127.962c0-10.127-8.156-18.28-18.286-18.28-6.246-0.184-13.365-0.048-19.201 0.018-4.498 0.219-8.814 2.139-11.996 5.356l-274.295 274.205c-7.132 7.129-7.132 18.719 0 25.848l274.295 274.205c3.182 3.181 8.43 5.1 12.928 5.356 6.385 0.537 12.885 0.005 18.268 0z" /><glyph unicode="&#xe62b;" d="M804.553 694.868c0.030 4.641-2.139 9.729-5.357 12.91l-274.269 274.302c-7.131 7.132-18.723 7.132-25.854 0l-274.269-274.302c-3.218-3.218-5.101-8.412-5.357-12.91l-0.018-18.287c0-10.131 8.155-18.287 18.285-18.287h127.992v-292.588h-127.992c-10.13 0-18.285-8.156-18.285-18.287l0.018-18.287c0.219-4.499 2.139-9.729 5.357-12.91l274.269-274.302c7.131-7.132 18.723-7.132 25.854 0l274.269 274.302c3.182 3.218 5.101 8.412 5.357 12.91l0.018 18.287c0 10.131-8.155 18.287-18.285 18.287h-127.992v292.588h127.992c10.13 0 18.285 8.156 18.285 18.287z" /><glyph unicode="&#xe62c;" d="M544.698 950.857c-4.535 0-8.778-1.829-12.143-4.864l-13.752-13.459c-7.169-7.169-7.169-18.69 0-25.858l90.522-90.522-401.478-401.478-90.522 90.595c-7.169 7.169-18.69 7.169-25.858 0l-13.459-13.825c-2.999-3.365-4.864-7.534-4.864-12.070v-387.945c0-10.095 8.193-18.287 18.287-18.287h387.945c4.535 0 8.741 1.829 12.070 4.864l13.825 13.459c7.169 7.169 7.169 18.69 0 25.858l-90.595 90.522 401.478 401.478 90.522-90.522c7.169-7.169 18.69-7.169 25.858 0l13.459 13.752c2.999 3.365 4.864 7.607 4.864 12.143v387.872c0 10.095-8.193 18.287-18.287 18.287z" /><glyph unicode="&#xe62d;" d="M329.132 804.553c-4.641 0.030-9.729-2.139-12.91-5.357l-274.302-274.269c-7.132-7.131-7.132-18.723 0-25.854l274.302-274.269c3.218-3.218 8.412-5.101 12.91-5.357l18.287-0.018c10.131 0 18.287 8.155 18.287 18.285v127.992h292.588v-127.992c0-10.13 8.156-18.285 18.287-18.285l18.287 0.018c4.499 0.219 9.729 2.139 12.91 5.357l274.302 274.269c7.132 7.131 7.132 18.723 0 25.854l-274.302 274.269c-3.218 3.182-8.412 5.101-12.91 5.357l-18.287 0.018c-10.131 0-18.287-8.155-18.287-18.285v-127.992h-292.588v127.992c0 10.13-8.156 18.285-18.287 18.285z" /><glyph unicode="&#xe62e;" d="M479.302 950.857c4.535 0 8.778-1.829 12.143-4.864l13.752-13.459c7.169-7.169 7.169-18.69 0-25.858l-90.522-90.522 401.478-401.478 90.522 90.595c7.169 7.169 18.69 7.169 25.858 0l13.459-13.825c2.999-3.365 4.864-7.534 4.864-12.070v-387.945c0-10.095-8.193-18.287-18.287-18.287h-387.945c-4.535 0-8.741 1.829-12.070 4.864l-13.825 13.459c-7.169 7.169-7.169 18.69 0 25.858l90.595 90.522-401.478 401.478-90.522-90.522c-7.169-7.169-18.69-7.169-25.858 0l-13.459 13.752c-2.999 3.365-4.864 7.607-4.864 12.143v387.872c0 10.095 8.193 18.287 18.287 18.287z" /><glyph unicode="&#xe62f;" d="M0 512c0-282.77 229.23-512 512-512s512 229.23 512 512-229.23 512-512 512-512-229.23-512-512zM219.429 384v128c0 4.864 1.938 9.509 5.339 12.946l274.286 274.286c7.131 7.131 18.725 7.131 25.856 0l274.286-274.286c3.438-3.438 5.339-8.082 5.339-12.946v-128c0-16.274-19.712-24.43-31.232-12.946l-188.197 188.197v-303.287c0-20.261-16.311-36.571-36.571-36.571h-73.143c-20.261 0-36.571 16.311-36.571 36.571v303.287l-188.197-188.197c-11.548-11.237-31.176-3.247-31.195 12.946z" /><glyph unicode="&#xe630;" d="M512 1024c-282.77 0-512-229.23-512-512s229.23-512 512-512c282.77 0 512 229.23 512 512s-229.23 512-512 512zM384 804.571h128c4.864 0 9.509-1.938 12.946-5.339l274.286-274.286c7.131-7.131 7.131-18.725 0-25.856l-274.286-274.286c-3.438-3.438-8.082-5.339-12.946-5.339h-128c-16.274 0-24.43 19.712-12.946 31.232l188.197 188.197h-303.287c-20.261 0-36.571 16.311-36.571 36.571v73.143c0 20.261 16.311 36.571 36.571 36.571h303.287l-188.197 188.197c-11.237 11.548-3.247 31.176 12.946 31.195z" /><glyph unicode="&#xe631;" d="M1024 512c0 282.77-229.23 512-512 512s-512-229.23-512-512c0-282.77 229.23-512 512-512s512 229.23 512 512zM804.571 640v-128c0-4.864-1.938-9.509-5.339-12.946l-274.286-274.286c-7.131-7.131-18.725-7.131-25.856 0l-274.286 274.286c-3.438 3.438-5.339 8.082-5.339 12.946v128c0 16.274 19.712 24.43 31.232 12.946l188.197-188.197v303.287c0 20.261 16.311 36.571 36.571 36.571h73.143c20.261 0 36.571-16.311 36.571-36.571v-303.287l188.197 188.197c11.548 11.237 31.176 3.247 31.195-12.946z" /><glyph unicode="&#xe632;" d="M512 0c282.77 0 512 229.23 512 512s-229.23 512-512 512-512-229.23-512-512 229.23-512 512-512zM640 219.429h-128c-4.864 0-9.509 1.938-12.946 5.339l-274.286 274.286c-7.131 7.131-7.131 18.725 0 25.856l274.286 274.286c3.438 3.438 8.082 5.339 12.946 5.339h128c16.274 0 24.43-19.712 12.946-31.232l-188.197-188.197h303.287c20.261 0 36.571-16.311 36.571-36.571v-73.143c0-20.261-16.311-36.571-36.571-36.571h-303.287l188.197-188.197c11.237-11.548 3.247-31.176-12.946-31.195z" /><glyph unicode="&#xe633;" d="M0 512c0-282.77 229.23-512 512-512s512 229.23 512 512-229.23 512-512 512-512-229.23-512-512zM109.714 512c0 222.171 180.114 402.286 402.286 402.286s402.286-180.114 402.286-402.286-180.114-402.286-402.286-402.286-402.286 180.114-402.286 402.286zM219.5 384c0-16.274 19.694-24.412 31.214-12.929l188.214 188.214v-303.357c0-20.261 16.311-36.571 36.571-36.571h73.143c20.261 0 36.571 16.311 36.571 36.571v303.357l188.143-188.214c11.52-11.52 31.249-3.382 31.286 12.929l-0.071 128c0 4.864-1.956 9.491-5.357 12.929l-274.286 274.286c-7.131 7.131-18.726 7.131-25.857 0l-274.286-274.286c-3.438-3.438-5.286-8.065-5.286-12.929z" /><glyph unicode="&#xe634;" d="M512 1024c-282.77 0-512-229.23-512-512s229.23-512 512-512 512 229.23 512 512-229.23 512-512 512zM512 914.286c222.171 0 402.286-180.114 402.286-402.286s-180.114-402.286-402.286-402.286-402.286 180.114-402.286 402.286 180.114 402.286 402.286 402.286zM384 804.5c-16.274 0-24.412-19.694-12.929-31.214l188.214-188.214h-303.357c-20.261 0-36.571-16.311-36.571-36.571v-73.143c0-20.261 16.311-36.571 36.571-36.571h303.357l-188.214-188.143c-11.52-11.52-3.382-31.249 12.929-31.286l128 0.071c4.864 0 9.491 1.956 12.929 5.357l274.286 274.286c7.131 7.131 7.131 18.726 0 25.857l-274.286 274.286c-3.438 3.438-8.065 5.286-12.929 5.286z" /><glyph unicode="&#xe635;" d="M1024 512c0 282.77-229.23 512-512 512s-512-229.23-512-512 229.23-512 512-512 512 229.23 512 512zM914.286 512c0-222.171-180.114-402.286-402.286-402.286s-402.286 180.114-402.286 402.286 180.114 402.286 402.286 402.286 402.286-180.114 402.286-402.286zM804.5 640c0 16.274-19.694 24.412-31.214 12.929l-188.214-188.214v303.357c0 20.261-16.311 36.571-36.571 36.571h-73.143c-20.261 0-36.571-16.311-36.571-36.571v-303.357l-188.143 188.214c-11.52 11.52-31.249 3.382-31.286-12.929l0.071-128c0-4.864 1.956-9.491 5.357-12.929l274.286-274.286c7.131-7.131 18.726-7.131 25.857 0l274.286 274.286c3.438 3.438 5.286 8.065 5.286 12.929z" /><glyph unicode="&#xe636;" d="M512 0c282.77 0 512 229.23 512 512s-229.23 512-512 512-512-229.23-512-512 229.23-512 512-512zM512 109.714c-222.171 0-402.286 180.114-402.286 402.286s180.114 402.286 402.286 402.286 402.286-180.114 402.286-402.286-180.114-402.286-402.286-402.286zM640 219.5c16.274 0 24.412 19.694 12.929 31.214l-188.214 188.214h303.357c20.261 0 36.571 16.311 36.571 36.571v73.143c0 20.261-16.311 36.571-36.571 36.571h-303.357l188.214 188.143c11.52 11.52 3.382 31.249-12.929 31.286l-128-0.071c-4.864 0-9.491-1.956-12.929-5.357l-274.286-274.286c-7.131-7.131-7.131-18.726 0-25.857l274.286-274.286c3.438-3.438 8.065-5.286 12.929-5.286z" /><glyph unicode="&#xe637;" d="M804.571 310.874c0-10.093-8.192-18.302-18.286-18.302-5.047 0-9.618 2.048-12.946 5.376l-261.339 261.318-261.339-261.318c-3.328-3.328-7.899-5.376-12.946-5.376-10.094 0-18.286 8.21-18.286 18.302v127.989c0 5.046 2.048 9.672 5.339 12.963l274.286 274.263c3.291 3.291 7.863 5.339 12.91 5.339s9.618-2.048 12.946-5.339l274.286-274.263c3.291-3.291 5.376-7.917 5.376-12.963z" /><glyph unicode="&#xe638;" d="M709.246 297.88c-3.272-3.272-7.817-5.308-12.834-5.308-10.034 0-18.178 8.144-18.178 18.179v367.475h-367.485c-10.034 0-18.178 8.144-18.178 18.179 0 5.017 2.036 9.562 5.344 12.871l89.981 89.987c3.272 3.272 7.817 5.308 12.834 5.308h385.663c10.034 0 18.178-8.144 18.178-18.179v-385.691c0-5.017-2.036-9.562-5.308-12.835l-89.981-89.987z" /><glyph unicode="&#xe639;" d="M310.856 804.571c-10.093 0-18.302-8.192-18.302-18.286 0-5.047 2.048-9.618 5.376-12.946l261.318-261.339-261.318-261.339c-3.328-3.328-5.376-7.899-5.376-12.946 0-10.094 8.21-18.286 18.302-18.286h127.989c5.046 0 9.672 2.048 12.963 5.339l274.263 274.286c3.291 3.291 5.339 7.863 5.339 12.91s-2.048 9.618-5.339 12.946l-274.263 274.286c-3.291 3.291-7.917 5.376-12.963 5.376z" /><glyph unicode="&#xe63a;" d="M709.246 726.12c-3.272 3.272-7.817 5.308-12.834 5.308-10.034 0-18.178-8.144-18.178-18.179v-367.475h-367.485c-10.034 0-18.178-8.144-18.178-18.179 0-5.017 2.036-9.562 5.344-12.871l89.981-89.987c3.272-3.272 7.817-5.308 12.834-5.308h385.663c10.034 0 18.178 8.144 18.178 18.179v385.691c0 5.017-2.036 9.562-5.308 12.835l-89.981 89.987z" /><glyph unicode="&#xe63b;" d="M219.429 713.126c0 10.093 8.192 18.302 18.286 18.302 5.047 0 9.618-2.048 12.946-5.376l261.339-261.318 261.339 261.318c3.328 3.328 7.899 5.376 12.946 5.376 10.094 0 18.286-8.21 18.286-18.302v-127.989c0-5.046-2.048-9.672-5.339-12.963l-274.286-274.263c-3.291-3.291-7.863-5.339-12.91-5.339s-9.618 2.048-12.946 5.339l-274.286 274.263c-3.291 3.291-5.376 7.917-5.376 12.963z" /><glyph unicode="&#xe63c;" d="M314.754 726.12c3.272 3.272 7.817 5.308 12.834 5.308 10.034 0 18.178-8.144 18.178-18.179v-367.475h367.485c10.034 0 18.178-8.144 18.178-18.179 0-5.017-2.036-9.562-5.344-12.871l-89.981-89.987c-3.272-3.272-7.817-5.308-12.834-5.308h-385.663c-10.034 0-18.178 8.144-18.178 18.179v385.691c0 5.017 2.036 9.562 5.308 12.835l89.981 89.987z" /><glyph unicode="&#xe63d;" d="M713.108 804.571c10.093 0 18.302-8.192 18.302-18.286 0-5.047-2.048-9.618-5.376-12.946l-261.318-261.339 261.318-261.339c3.328-3.328 5.376-7.899 5.376-12.946 0-10.094-8.21-18.286-18.302-18.286h-127.989c-5.046 0-9.672 2.048-12.963 5.339l-274.263 274.286c-3.291 3.291-5.339 7.863-5.339 12.91s2.048 9.618 5.339 12.946l274.263 274.286c3.291 3.291 7.917 5.376 12.963 5.376z" /><glyph unicode="&#xe63e;" d="M314.754 297.88c3.272-3.272 7.817-5.308 12.834-5.308 10.034 0 18.178 8.144 18.178 18.179v367.475h367.485c10.034 0 18.178 8.144 18.178 18.179 0 5.017-2.036 9.562-5.344 12.871l-89.981 89.987c-3.272 3.272-7.817 5.308-12.834 5.308h-385.663c-10.034 0-18.178-8.144-18.178-18.179v-385.691c0-5.017 2.036-9.562 5.308-12.835l89.981-89.987z" /><glyph unicode="&#xe63f;" d="M804.571 164.571c0-10.094-8.192-18.286-18.286-18.286-5.047 0-9.601 2.029-12.929 5.357l-261.357 261.357-261.357-261.357c-3.328-3.328-7.882-5.357-12.929-5.357-10.094 0-18.286 8.192-18.286 18.286v128c0 5.047 2.066 9.709 5.357 13l274.286 274.286c3.291 3.291 7.81 5.286 12.857 5.286s9.672-1.994 13-5.286l274.286-274.286c3.291-3.291 5.357-7.953 5.357-13zM804.571 457.143c0-10.094-8.192-18.286-18.286-18.286-5.047 0-9.601 2.029-12.929 5.357l-261.357 261.357-261.357-261.357c-3.328-3.328-7.882-5.357-12.929-5.357-10.094 0-18.286 8.192-18.286 18.286v128c0 5.047 2.066 9.709 5.357 13l274.286 274.286c3.291 3.291 7.81 5.286 12.857 5.286s9.672-1.994 13-5.286l274.286-274.286c3.291-3.291 5.357-7.953 5.357-13z" /><glyph unicode="&#xe640;" d="M164.571 804.571c-10.094 0-18.286-8.192-18.286-18.286 0-5.047 2.029-9.601 5.357-12.929l261.357-261.357-261.357-261.357c-3.328-3.328-5.357-7.882-5.357-12.929 0-10.094 8.192-18.286 18.286-18.286h128c5.047 0 9.709 2.066 13 5.357l274.286 274.286c3.291 3.291 5.286 7.81 5.286 12.857s-1.994 9.672-5.286 13l-274.286 274.286c-3.291 3.291-7.953 5.357-13 5.357zM457.143 804.571c-10.094 0-18.286-8.192-18.286-18.286 0-5.047 2.029-9.601 5.357-12.929l261.357-261.357-261.357-261.357c-3.328-3.328-5.357-7.882-5.357-12.929 0-10.094 8.192-18.286 18.286-18.286h128c5.047 0 9.709 2.066 13 5.357l274.286 274.286c3.291 3.291 5.286 7.81 5.286 12.857s-1.994 9.672-5.286 13l-274.286 274.286c-3.291 3.291-7.953 5.357-13 5.357z" /><glyph unicode="&#xe641;" d="M804.571 859.429c0 10.094-8.192 18.286-18.286 18.286-5.047 0-9.601-2.029-12.929-5.357l-261.357-261.357-261.357 261.357c-3.328 3.328-7.882 5.357-12.929 5.357-10.094 0-18.286-8.192-18.286-18.286v-128c0-5.047 2.066-9.709 5.357-13l274.286-274.286c3.291-3.291 7.81-5.286 12.857-5.286s9.672 1.994 13 5.286l274.286 274.286c3.291 3.291 5.357 7.953 5.357 13zM804.571 566.857c0 10.094-8.192 18.286-18.286 18.286-5.047 0-9.601-2.029-12.929-5.357l-261.357-261.357-261.357 261.357c-3.328 3.328-7.882 5.357-12.929 5.357-10.094 0-18.286-8.192-18.286-18.286v-128c0-5.047 2.066-9.709 5.357-13l274.286-274.286c3.291-3.291 7.81-5.286 12.857-5.286s9.672 1.994 13 5.286l274.286 274.286c3.291 3.291 5.357 7.953 5.357 13z" /><glyph unicode="&#xe642;" d="M859.429 219.429c10.094 0 18.286 8.192 18.286 18.286 0 5.047-2.029 9.601-5.357 12.929l-261.357 261.357 261.357 261.357c3.328 3.328 5.357 7.882 5.357 12.929 0 10.094-8.192 18.286-18.286 18.286h-128c-5.047 0-9.709-2.066-13-5.357l-274.286-274.286c-3.291-3.291-5.286-7.81-5.286-12.857s1.994-9.672 5.286-13l274.286-274.286c3.291-3.291 7.953-5.357 13-5.357zM566.857 219.429c10.094 0 18.286 8.192 18.286 18.286 0 5.047-2.029 9.601-5.357 12.929l-261.357 261.357 261.357 261.357c3.328 3.328 5.357 7.882 5.357 12.929 0 10.094-8.192 18.286-18.286 18.286h-128c-5.047 0-9.709-2.066-13-5.357l-274.286-274.286c-3.291-3.291-5.286-7.81-5.286-12.857s1.994-9.672 5.286-13l274.286-274.286c3.291-3.291 7.953-5.357 13-5.357z" /><glyph unicode="&#xe643;" d="M292.571 804.571c-5.046 0-9.709-2.066-13-5.357l-274.214-274.286c-3.291-3.328-5.357-7.953-5.357-13s2.066-9.566 5.357-12.857l274.214-274.286c3.291-3.291 7.954-5.357 13-5.357h128c10.093 0 18.286 8.192 18.286 18.286 0 5.047-2.029 9.601-5.357 12.929l-261.357 261.357 261.357 261.357c3.328 3.328 5.357 7.882 5.357 12.929 0 10.094-8.193 18.286-18.286 18.286zM603.429 804.571c-10.093 0-18.286-8.192-18.286-18.286 0-5.047 2.029-9.601 5.357-12.929l261.357-261.357-261.357-261.357c-3.328-3.328-5.357-7.882-5.357-12.929 0-10.094 8.193-18.286 18.286-18.286h128c5.046 0 9.709 2.066 13 5.357l274.214 274.286c3.291 3.291 5.357 7.81 5.357 12.857s-2.066 9.672-5.357 13l-274.214 274.286c-3.291 3.291-7.954 5.357-13 5.357z" /><glyph unicode="&#xe644;" d="M804.571 731.429c0 5.046-2.066 9.709-5.357 13l-274.286 274.214c-3.328 3.291-7.953 5.357-13 5.357s-9.566-2.066-12.857-5.357l-274.286-274.214c-3.291-3.291-5.357-7.954-5.357-13v-128c0-10.093 8.192-18.286 18.286-18.286 5.047 0 9.601 2.029 12.929 5.357l261.357 261.357 261.357-261.357c3.328-3.328 7.882-5.357 12.929-5.357 10.094 0 18.286 8.193 18.286 18.286zM804.571 420.571c0 10.093-8.192 18.286-18.286 18.286-5.047 0-9.601-2.029-12.929-5.357l-261.357-261.357-261.357 261.357c-3.328 3.328-7.882 5.357-12.929 5.357-10.094 0-18.286-8.193-18.286-18.286v-128c0-5.046 2.066-9.709 5.357-13l274.286-274.214c3.291-3.291 7.81-5.357 12.857-5.357s9.672 2.066 13 5.357l274.286 274.214c3.291 3.291 5.357 7.954 5.357 13z" /><glyph unicode="&#xe645;" d="M512 731.429c5.595-0.073 10.569-2.56 13.861-6.363l347.392-402.286c10.203-11.849 1.792-30.208-13.861-30.208h-694.784c-15.653 0-24.064 18.359-13.861 30.208l347.392 402.286c3.657 4.206 7.278 6.327 13.861 6.363z" /><glyph unicode="&#xe646;" d="M797.632 797.632c-4.133 4.023-9.545 7.278-14.738 6.912h-546.011c-16.055-1.207-23.296-20.699-11.922-32.11l547.474-547.474c11.374-11.374 30.903-4.133 32.11 11.922v546.011c0.402 5.742-2.158 9.911-6.912 14.738z" /><glyph unicode="&#xe647;" d="M731.429 512c-0.073 5.595-2.56 10.569-6.363 13.861l-402.286 347.392c-11.849 10.203-30.208 1.792-30.208-13.861v-694.784c0-15.653 18.359-24.064 30.208-13.861l402.286 347.392c4.206 3.657 6.327 7.278 6.363 13.861z" /><glyph unicode="&#xe648;" d="M226.382 226.369c4.133-4.023 9.545-7.278 14.738-6.912h546.011c16.055 1.207 23.296 20.699 11.922 32.11l-547.474 547.474c-11.374 11.374-30.903 4.133-32.11-11.922v-546.011c-0.402-5.742 2.158-9.911 6.912-14.738z" /><glyph unicode="&#xe649;" d="M292.571 512c0.073 5.595 2.56 10.569 6.363 13.861l402.286 347.392c11.849 10.203 30.208 1.792 30.208-13.861v-694.784c0-15.653-18.359-24.064-30.208-13.861l-402.286 347.392c-4.206 3.657-6.327 7.278-6.363 13.861z" /><glyph unicode="&#xe64a;" d="M797.632 226.369c-4.133-4.023-9.545-7.278-14.738-6.912h-546.011c-16.055 1.207-23.296 20.699-11.922 32.11l547.474 547.474c11.374 11.374 30.903 4.133 32.11-11.922v-546.011c0.402-5.742-2.158-9.911-6.912-14.738z" /><glyph unicode="&#xe64b;" d="M512 292.571c5.595 0.073 10.569 2.56 13.861 6.363l347.392 402.286c10.203 11.849 1.792 30.208-13.861 30.208h-694.784c-15.653 0-24.064-18.359-13.861-30.208l347.392-402.286c3.657-4.206 7.278-6.327 13.861-6.363z" /><glyph unicode="&#xe64c;" d="M226.382 797.632c4.133 4.023 9.545 7.278 14.738 6.912h546.011c16.055-1.207 23.296-20.699 11.922-32.11l-547.474-547.474c-11.374-11.374-30.903-4.133-32.11 11.922v546.011c-0.402 5.742 2.158 9.911 6.912 14.738z" /><glyph unicode="&#xe64d;" d="M146.325 768c0 20.261 16.309 36.571 36.568 36.571h658.215c20.258 0 36.568-16.311 36.568-36.571v-73.143c0-20.261-16.309-36.571-36.568-36.571h-658.215c-20.258 0-36.568 16.311-36.568 36.571zM512 658.286c5.595-0.073 10.568-2.56 13.859-6.363l347.391-402.286c10.202-11.849 1.792-30.208-13.859-30.208h-694.783c-15.651 0-24.061 18.359-13.859 30.208l347.391 402.286c3.657 4.206 7.277 6.327 13.859 6.363z" /><glyph unicode="&#xe64e;" d="M768 877.675c20.261 0 36.571-16.309 36.571-36.568v-658.215c0-20.258-16.311-36.568-36.571-36.568h-73.143c-20.261 0-36.571 16.309-36.571 36.568v658.215c0 20.258 16.311 36.568 36.571 36.568zM658.286 512c-0.073-5.595-2.56-10.568-6.363-13.859l-402.286-347.391c-11.849-10.202-30.208-1.792-30.208 13.859v694.783c0 15.651 18.359 24.061 30.208 13.859l402.286-347.391c4.206-3.657 6.327-7.277 6.363-13.859z" /><glyph unicode="&#xe64f;" d="M877.675 256c0-20.261-16.309-36.571-36.568-36.571h-658.215c-20.258 0-36.568 16.311-36.568 36.571v73.143c0 20.261 16.309 36.571 36.568 36.571h658.215c20.258 0 36.568-16.311 36.568-36.571zM512 365.714c-5.595 0.073-10.568 2.56-13.859 6.363l-347.391 402.286c-10.202 11.849-1.792 30.208 13.859 30.208h694.783c15.651 0 24.061-18.359 13.859-30.208l-347.391-402.286c-3.657-4.206-7.277-6.327-13.859-6.363z" /><glyph unicode="&#xe650;" d="M256 146.325c-20.261 0-36.571 16.309-36.571 36.568v658.215c0 20.258 16.311 36.568 36.571 36.568h73.143c20.261 0 36.571-16.309 36.571-36.568v-658.215c0-20.258-16.311-36.568-36.571-36.568zM365.714 512c0.073 5.595 2.56 10.568 6.363 13.859l402.286 347.391c11.849 10.202 30.208 1.792 30.208-13.859v-694.783c0-15.651-18.359-24.061-30.208-13.859l-402.286 347.391c-4.206 3.657-6.327 7.277-6.363 13.859z" /><glyph unicode="&#xe651;" d="M532.5 877.55c3.387-0.402 6.752-1.735 9.714-4.285l402.286-347.409c4.206-3.657 6.321-7.274 6.357-13.856-0.073-5.595-2.554-10.565-6.357-13.856l-402.286-347.409c-11.849-10.203-30.214-1.724-30.214 13.928v694.675c0 11.739 10.338 19.418 20.5 18.213zM512 512c-0.073-5.595-2.554-10.565-6.357-13.856l-402.286-347.409c-11.849-10.203-30.214-1.724-30.214 13.928v694.675c0 15.652 18.365 24.131 30.214 13.928l402.286-347.409c4.206-3.657 6.321-7.274 6.357-13.856z" /><glyph unicode="&#xe652;" d="M491.5 877.55c-3.387-0.402-6.752-1.735-9.714-4.285l-402.286-347.409c-4.206-3.657-6.321-7.274-6.357-13.856 0.073-5.595 2.554-10.565 6.357-13.856l402.286-347.409c11.849-10.203 30.214-1.724 30.214 13.928v694.675c0 11.739-10.338 19.418-20.5 18.213zM512 512c0.073-5.595 2.554-10.565 6.357-13.856l402.286-347.409c11.849-10.203 30.214-1.724 30.214 13.928v694.675c0 15.652-18.365 24.131-30.214 13.928l-402.286-347.409c-4.206-3.657-6.321-7.274-6.357-13.856z" /><glyph unicode="&#xe653;" d="M512 1024c-6.582-0.037-10.199-2.151-13.856-6.357l-347.409-402.286c-10.203-11.849-1.724-30.214 13.928-30.214h694.675c15.652 0 24.131 18.365 13.928 30.214l-347.409 402.286c-3.291 3.803-8.261 6.284-13.856 6.357zM164.663 438.857c-15.652 0-24.131-18.365-13.928-30.214l347.409-402.286c3.657-4.206 7.274-6.321 13.856-6.357 5.595 0.073 10.565 2.554 13.856 6.357l347.409 402.286c10.203 11.849 1.724 30.214-13.928 30.214z" /><glyph unicode="&#xe654;" d="M418.357 877.592c-3.387-0.402-6.752-1.735-9.714-4.286l-402.286-347.429c-4.206-3.657-6.321-7.274-6.357-13.857 0.073-5.595 2.554-10.566 6.357-13.857l402.286-347.429c11.849-10.203 30.214-1.724 30.214 13.929v694.714c0 11.739-10.338 19.419-20.5 18.214zM605.643 877.592c-10.162 1.205-20.5-6.475-20.5-18.214v-694.714c0-15.653 18.365-24.132 30.214-13.929l402.286 347.429c3.803 3.291 6.284 8.262 6.357 13.857-0.037 6.583-2.151 10.2-6.357 13.857l-402.286 347.429c-2.962 2.551-6.327 3.884-9.714 4.286z" /><glyph unicode="&#xe655;" d="M0 512c0-282.77 229.23-512 512-512s512 229.23 512 512c0 282.77-229.23 512-512 512s-512-229.23-512-512zM222.72 390.949l278.235 335.214c2.633 3.182 6.583 5.23 11.081 5.303 5.266-0.037 8.155-1.755 11.081-5.303l278.162-335.214c8.155-9.874 1.17-25.234-11.337-25.234h-555.886c-12.189-0.115-18.701 16.021-11.337 25.234z" /><glyph unicode="&#xe656;" d="M512 1024c-282.77 0-512-229.23-512-512s229.23-512 512-512c282.77 0 512 229.23 512 512s-229.23 512-512 512zM390.949 801.28l335.214-278.235c3.182-2.633 5.23-6.583 5.303-11.081-0.037-5.266-1.755-8.155-5.303-11.081l-335.214-278.162c-9.874-8.155-25.234-1.17-25.234 11.337v555.886c-0.115 12.189 16.021 18.701 25.234 11.337z" /><glyph unicode="&#xe657;" d="M1024 512c0 282.77-229.23 512-512 512s-512-229.23-512-512c0-282.77 229.23-512 512-512s512 229.23 512 512zM801.28 633.051l-278.235-335.214c-2.633-3.182-6.583-5.23-11.081-5.303-5.266 0.037-8.155 1.755-11.081 5.303l-278.162 335.214c-8.155 9.874-1.17 25.234 11.337 25.234h555.886c12.189 0.115 18.701-16.021 11.337-25.234z" /><glyph unicode="&#xe658;" d="M512 0c282.77 0 512 229.23 512 512s-229.23 512-512 512c-282.77 0-512-229.23-512-512s229.23-512 512-512zM633.051 222.72l-335.214 278.235c-3.182 2.633-5.23 6.583-5.303 11.081 0.037 5.266 1.755 8.155 5.303 11.081l335.214 278.162c9.874 8.155 25.234 1.17 25.234-11.337v-555.886c0.115-12.189-16.021-18.701-25.234-11.337z" /><glyph unicode="&#xe659;" d="M1024 512c0 282.77-229.23 512-512 512s-512-229.23-512-512c0-282.77 229.23-512 512-512s512 229.23 512 512zM914.286 512c0-222.171-180.114-402.286-402.286-402.286s-402.286 180.114-402.286 402.286c0 222.171 180.114 402.286 402.286 402.286s402.286-180.114 402.286-402.286zM765.367 385.893l-245.065 304.768c-1.975 2.523-4.937 4.169-8.302 4.206-3.95-0.037-6.071-1.39-8.302-4.206l-245.047-304.786c-6.107-7.899-1.024-20.169 8.375-20.169h489.929c10.569 0 13.281 14.604 8.411 20.187z" /><glyph unicode="&#xe65a;" d="M512 0c282.77 0 512 229.23 512 512s-229.23 512-512 512-512-229.23-512-512c0-282.77 229.23-512 512-512zM512 109.714c-222.171 0-402.286 180.114-402.286 402.286s180.114 402.286 402.286 402.286 402.286-180.114 402.286-402.286c0-222.171-180.114-402.286-402.286-402.286zM385.893 258.633l304.768 245.065c2.523 1.975 4.169 4.937 4.206 8.302-0.037 3.95-1.39 6.071-4.206 8.302l-304.786 245.047c-7.899 6.107-20.169 1.024-20.169-8.375v-489.929c0-10.569 14.604-13.281 20.187-8.411z" /><glyph unicode="&#xe65b;" d="M0 512c0-282.77 229.23-512 512-512s512 229.23 512 512c0 282.77-229.23 512-512 512s-512-229.23-512-512zM109.714 512c0 222.171 180.114 402.286 402.286 402.286s402.286-180.114 402.286-402.286c0-222.171-180.114-402.286-402.286-402.286s-402.286 180.114-402.286 402.286zM258.633 638.107l245.065-304.768c1.975-2.523 4.937-4.169 8.302-4.206 3.95 0.037 6.071 1.39 8.302 4.206l245.047 304.786c6.107 7.899 1.024 20.169-8.375 20.169h-489.929c-10.569 0-13.281-14.604-8.411-20.187z" /><glyph unicode="&#xe65c;" d="M512 1024c-282.77 0-512-229.23-512-512s229.23-512 512-512c282.77 0 512 229.23 512 512s-229.23 512-512 512zM512 914.286c222.171 0 402.286-180.114 402.286-402.286s-180.114-402.286-402.286-402.286c-222.171 0-402.286 180.114-402.286 402.286s180.114 402.286 402.286 402.286zM638.107 765.367l-304.768-245.065c-2.523-1.975-4.169-4.937-4.206-8.302 0.037-3.95 1.39-6.071 4.206-8.302l304.786-245.047c7.899-6.107 20.169-1.024 20.169 8.375v489.929c0 10.569-14.604 13.281-20.187 8.411z" /><glyph unicode="&#xe65d;" d="M731.429 512c0-121.198-98.231-219.429-219.429-219.429s-219.429 98.231-219.429 219.429 98.231 219.429 219.429 219.429 219.429-98.231 219.429-219.429z" /><glyph unicode="&#xe65e;" d="M512 1024c-282.77 0-512-229.23-512-512s229.23-512 512-512c282.77 0 512 229.23 512 512s-229.23 512-512 512zM512 914.286c222.171 0 402.286-180.114 402.286-402.286s-180.114-402.286-402.286-402.286c-222.171 0-402.286 180.114-402.286 402.286s180.114 402.286 402.286 402.286z" /><glyph unicode="&#xe65f;" d="M512.256 1024c-0.073 0-0.183 0-0.256 0-14.226 0-26.587-8.155-32.622-20.005l-475.538-951.077c-2.45-4.754-3.84-10.386-3.84-16.347 0-20.187 16.384-36.571 36.571-36.571v0h950.857c20.187 0 36.571 16.384 36.571 36.571 0 5.961-1.426 11.593-3.95 16.567l-475.319 950.638c-6.107 12.032-18.359 20.151-32.512 20.224zM475.392 731.429h73.143c20.261 0 36.571-16.311 36.571-36.571v-292.571c0-20.261-16.311-36.571-36.571-36.571h-73.143c-20.261 0-36.571 16.311-36.571 36.571v292.571c0 20.261 16.311 36.571 36.571 36.571zM475.392 256h73.143c20.261 0 36.571-16.311 36.571-36.571v-73.143c0-20.261-16.311-36.571-36.571-36.571h-73.143c-20.261 0-36.571 16.311-36.571 36.571v73.143c0 20.261 16.311 36.571 36.571 36.571z" /><glyph unicode="&#xe660;" d="M512 1024c-14.226 0-26.609-8.151-32.643-20l-475.5-951.071c-2.45-4.754-3.857-10.396-3.857-16.357 0-20.187 16.384-36.571 36.571-36.571h950.857c20.187 0 36.571 16.384 36.571 36.571 0 5.961-1.405 11.598-3.929 16.571l-475.357 950.643c-6.097 12.011-18.306 20.114-32.429 20.214h-0.071zM511.929 905.643l416.357-832.5h-832.643zM475.357 658.286c-20.187 0-36.571-16.384-36.571-36.571v-219.429c0-20.187 16.384-36.571 36.571-36.571h73.143c20.187 0 36.571 16.384 36.571 36.571v219.429c0 20.187-16.384 36.571-36.571 36.571zM475.357 292.571c-20.187 0-36.571-16.384-36.571-36.571v-72c0-20.187 16.384-36.571 36.571-36.571h73.143c20.187 0 36.571 16.384 36.571 36.571v72c0 20.187-16.384 36.571-36.571 36.571z" /><glyph unicode="&#xe661;" d="M520.137 1024c-113.042 0-219.977-28.27-320.768-84.773l73.911-148.517c86.821 44.288 164.096 66.414 231.936 66.414 38.875 0 69.157-7.643 90.843-23.003s32.585-37.742 32.585-67.145c0-26.222-7.717-49.957-23.077-71.205-14.921-21.248-46.117-48.823-93.586-82.725-49.262-36.169-83.163-70.327-101.705-102.437s-27.794-69.815-27.794-113.225v-50.213h179.712v40.704c0 27.136 5.632 49.042 16.933 65.792 11.739 16.713 39.314 41.106 82.725 73.216 63.305 45.202 106.24 85.906 128.841 122.075s33.938 79.141 33.938 128.841c0 74.606-27.648 134.254-82.798 179.017-55.289 45.303-127.74 66.508-221.696 67.182zM475.41 219.429c-60.599 0-109.714-49.115-109.714-109.714s49.115-109.714 109.714-109.714 109.714 49.115 109.714 109.714-49.115 109.714-109.714 109.714z" /><glyph unicode="&#xe662;" d="M512 1024c-282.77 0-512-229.23-512-512s229.23-512 512-512c282.77 0 512 229.23 512 512s-229.23 512-512 512zM676.206 829.769c39.387-31.963 59.063-74.569 59.063-127.854 0-35.511-8.082-66.231-24.21-92.087-16.165-25.819-46.775-54.93-92.014-87.223-31.013-22.93-50.761-40.338-59.136-52.297-8.082-11.959-12.069-27.611-12.069-46.994v-29.074h-128.366v35.84c0 31.013 6.619 57.929 19.858 80.859s37.449 47.397 72.631 73.216c33.902 24.21 56.21 43.886 66.853 59.063 10.971 15.177 16.421 32.11 16.421 50.871 0 20.992-7.717 36.937-23.223 47.945-15.506 10.971-37.157 16.421-64.914 16.421-48.457 0-103.643-15.799-165.632-47.433l-52.773 106.057c72.009 40.375 148.334 60.562 229.083 60.562 67.274-0.203 119.279-16.122 158.427-47.872zM485.851 302.994v0c43.301 0 78.373-35.072 78.373-78.373v0c0-43.301-35.072-78.373-78.373-78.373v0c-43.301 0-78.373 35.072-78.373 78.373v0c0 43.301 35.072 78.373 78.373 78.373z" /><glyph unicode="&#xe663;" d="M512 1024c-282.77 0-512-229.23-512-512s229.23-512 512-512 512 229.23 512 512-229.23 512-512 512zM512 914.286c222.171 0 402.286-180.114 402.286-402.286s-180.114-402.286-402.286-402.286-402.286 180.114-402.286 402.286 180.114 402.286 402.286 402.286zM516.643 804.571c-64.585 0-125.686-16.136-183.286-48.429l42.214-84.857c49.591 25.307 93.806 37.929 132.571 37.929 22.235 0 39.531-4.366 51.929-13.143s18.571-21.571 18.571-38.357c0-14.994-4.366-28.573-13.143-40.714-8.521-12.142-26.293-27.868-53.429-47.214-28.16-20.663-47.574-40.178-58.143-58.5-10.606-18.359-15.857-39.919-15.857-64.714v-28.714h102.643v23.286c0 15.506 3.241 28.026 9.714 37.571 6.729 9.545 22.49 23.498 47.286 41.857 36.169 25.819 60.662 49.051 73.571 69.714s19.429 45.227 19.429 73.643c0 42.642-15.833 76.722-47.357 102.286-31.393 25.674-73.746 38.2-126.714 38.357zM491.071 344.857c-34.633 0-62.643-28.081-62.643-62.714s28.010-62.643 62.643-62.643 62.714 28.010 62.714 62.643-28.081 62.714-62.714 62.714z" /><glyph unicode="&#xe664;" d="M512 1024c-60.599 0-109.714-49.115-109.714-109.714s49.115-109.714 109.714-109.714 109.714 49.115 109.714 109.714-49.115 109.714-109.714 109.714zM310.857 658.286c-10.13 0-18.286-8.155-18.286-18.286v-36.571c0-10.13 8.155-18.286 18.286-18.286h91.429v-512h-91.429c-10.13 0-18.286-8.155-18.286-18.286v-36.571c0-10.13 8.155-18.286 18.286-18.286h402.286c10.13 0 18.286 8.155 18.286 18.286v36.571c0 10.13-8.155 18.286-18.286 18.286h-91.429v512c0 40.521-32.622 73.143-73.143 73.143z" /><glyph unicode="&#xe665;" d="M512 0c-282.77 0-512 229.23-512 512s229.23 512 512 512c282.77 0 512-229.23 512-512s-229.23-512-512-512zM475.429 146.286h73.143c20.261 0 36.571 16.311 36.571 36.571v365.714c0 20.261-16.311 36.571-36.571 36.571h-73.143c-20.261 0-36.571-16.311-36.571-36.571v-365.714c0-20.261 16.311-36.571 36.571-36.571zM475.429 731.429h73.143c20.261 0 36.571 16.311 36.571 36.571v73.143c0 20.261-16.311 36.571-36.571 36.571h-73.143c-20.261 0-36.571-16.311-36.571-36.571v-73.143c0-20.261 16.311-36.571 36.571-36.571z" /><glyph unicode="&#xe666;" d="M512 1024c-282.77 0-512-229.23-512-512s229.23-512 512-512 512 229.23 512 512-229.23 512-512 512zM512 914.286c222.171 0 402.286-180.114 402.286-402.286s-180.114-402.286-402.286-402.286-402.286 180.114-402.286 402.286 180.114 402.286 402.286 402.286zM475.429 804.571c-20.187 0-36.571-16.384-36.571-36.571v-73.143c0-20.187 16.384-36.571 36.571-36.571h73.143c20.187 0 36.571 16.384 36.571 36.571v73.143c0 20.187-16.384 36.571-36.571 36.571zM475.429 585.143c-20.187 0-36.571-16.384-36.571-36.571v-292.571c0-20.187 16.384-36.571 36.571-36.571h73.143c20.187 0 36.571 16.384 36.571 36.571v292.571c0 20.187-16.384 36.571-36.571 36.571z" /><glyph unicode="&#xe667;" d="M438.857 1024c-40.521 0-76.030-32.725-73.143-73.143l36.571-512c2.887-40.418 32.622-73.143 73.143-73.143h73.143c40.521 0 70.256 32.725 73.143 73.143l36.571 512c2.887 40.418-32.622 73.143-73.143 73.143zM512 219.429c-60.599 0-109.714-49.115-109.714-109.714s49.115-109.714 109.714-109.714 109.714 49.115 109.714 109.714-49.115 109.714-109.714 109.714z" /><glyph unicode="&#xe668;" d="M512 1024c-282.77 0-512-229.23-512-512s229.23-512 512-512c282.77 0 512 229.23 512 512s-229.23 512-512 512zM475.429 877.714h73.143c20.261 0 36.571-16.311 36.571-36.571v-365.714c0-20.261-16.311-36.571-36.571-36.571h-73.143c-20.261 0-36.571 16.311-36.571 36.571v365.714c0 20.261 16.311 36.571 36.571 36.571zM475.429 292.571h73.143c20.261 0 36.571-16.311 36.571-36.571v-73.143c0-20.261-16.311-36.571-36.571-36.571h-73.143c-20.261 0-36.571 16.311-36.571 36.571v73.143c0 20.261 16.311 36.571 36.571 36.571z" /><glyph unicode="&#xe669;" d="M512 1024c-282.77 0-512-229.23-512-512s229.23-512 512-512 512 229.23 512 512-229.23 512-512 512zM512 914.286c222.171 0 402.286-180.114 402.286-402.286s-180.114-402.286-402.286-402.286-402.286 180.114-402.286 402.286 180.114 402.286 402.286 402.286zM475.429 804.571c-20.187 0-36.571-16.384-36.571-36.571v-292.571c0-20.187 16.384-36.571 36.571-36.571h73.143c20.187 0 36.571 16.384 36.571 36.571v292.571c0 20.187-16.384 36.571-36.571 36.571zM475.429 365.714c-20.187 0-36.571-16.384-36.571-36.571v-73.143c0-20.187 16.384-36.571 36.571-36.571h73.143c20.187 0 36.571 16.384 36.571 36.571v73.143c0 20.187-16.384 36.571-36.571 36.571z" /><glyph unicode="&#xe66a;" d="M1024 624.347l-624.347-624.347h103.424l520.923 520.923zM1024 417.499l-417.499-417.499h103.57l313.929 313.929zM1024 210.505l-210.505-210.505h103.424l107.081 107.081z" /><glyph unicode="&#xe66b;" d="M1024 404.919l-404.919-404.919h103.424l301.495 301.495zM1024 198.071l-198.071-198.071h103.57l94.501 94.501z" /><glyph unicode="&#xe66c;" d="M182.857 731.429c-20.187 0-36.571-16.384-36.571-36.571v-73.143c0-20.187 16.384-36.571 36.571-36.571h658.286c20.187 0 36.571 16.384 36.571 36.571v73.143c0 20.187-16.384 36.571-36.571 36.571zM182.857 438.857c-20.187 0-36.571-16.384-36.571-36.571v-73.143c0-20.187 16.384-36.571 36.571-36.571h658.286c20.187 0 36.571 16.384 36.571 36.571v73.143c0 20.187-16.384 36.571-36.571 36.571z" /><glyph unicode="&#xe66d;" d="M731.429 841.143c0 20.187-16.384 36.571-36.571 36.571h-73.143c-20.187 0-36.571-16.384-36.571-36.571v-658.286c0-20.187 16.384-36.571 36.571-36.571h73.143c20.187 0 36.571 16.384 36.571 36.571zM438.857 841.143c0 20.187-16.384 36.571-36.571 36.571h-73.143c-20.187 0-36.571-16.384-36.571-36.571v-658.286c0-20.187 16.384-36.571 36.571-36.571h73.143c20.187 0 36.571 16.384 36.571 36.571z" /><glyph unicode="&#xe66e;" d="M182.857 731.429c-20.187 0-36.571-16.384-36.571-36.571v-73.143c0-20.187 16.384-36.571 36.571-36.571h73.143c20.187 0 36.571 16.384 36.571 36.571v73.143c0 20.187-16.384 36.571-36.571 36.571zM475.429 731.429c-20.187 0-36.571-16.384-36.571-36.571v-73.143c0-20.187 16.384-36.571 36.571-36.571h73.143c20.187 0 36.571 16.384 36.571 36.571v73.143c0 20.187-16.384 36.571-36.571 36.571zM768 731.429c-20.187 0-36.571-16.384-36.571-36.571v-73.143c0-20.187 16.384-36.571 36.571-36.571h73.143c20.187 0 36.571 16.384 36.571 36.571v73.143c0 20.187-16.384 36.571-36.571 36.571zM182.857 438.857c-20.187 0-36.571-16.384-36.571-36.571v-73.143c0-20.187 16.384-36.571 36.571-36.571h73.143c20.187 0 36.571 16.384 36.571 36.571v73.143c0 20.187-16.384 36.571-36.571 36.571zM475.429 438.857c-20.187 0-36.571-16.384-36.571-36.571v-73.143c0-20.187 16.384-36.571 36.571-36.571h73.143c20.187 0 36.571 16.384 36.571 36.571v73.143c0 20.187-16.384 36.571-36.571 36.571zM768 438.857c-20.187 0-36.571-16.384-36.571-36.571v-73.143c0-20.187 16.384-36.571 36.571-36.571h73.143c20.187 0 36.571 16.384 36.571 36.571v73.143c0 20.187-16.384 36.571-36.571 36.571z" /><glyph unicode="&#xe66f;" d="M329.143 877.714c-20.187 0-36.571-16.384-36.571-36.571v-73.143c0-20.187 16.384-36.571 36.571-36.571h73.143c20.187 0 36.571 16.384 36.571 36.571v73.143c0 20.187-16.384 36.571-36.571 36.571zM621.714 877.714c-20.187 0-36.571-16.384-36.571-36.571v-73.143c0-20.187 16.384-36.571 36.571-36.571h73.143c20.187 0 36.571 16.384 36.571 36.571v73.143c0 20.187-16.384 36.571-36.571 36.571zM329.143 585.143c-20.187 0-36.571-16.384-36.571-36.571v-73.143c0-20.187 16.384-36.571 36.571-36.571h73.143c20.187 0 36.571 16.384 36.571 36.571v73.143c0 20.187-16.384 36.571-36.571 36.571zM621.714 585.143c-20.187 0-36.571-16.384-36.571-36.571v-73.143c0-20.187 16.384-36.571 36.571-36.571h73.143c20.187 0 36.571 16.384 36.571 36.571v73.143c0 20.187-16.384 36.571-36.571 36.571zM329.143 292.571c-20.187 0-36.571-16.384-36.571-36.571v-73.143c0-20.187 16.384-36.571 36.571-36.571h73.143c20.187 0 36.571 16.384 36.571 36.571v73.143c0 20.187-16.384 36.571-36.571 36.571zM621.714 292.571c-20.187 0-36.571-16.384-36.571-36.571v-73.143c0-20.187 16.384-36.571 36.571-36.571h73.143c20.187 0 36.571 16.384 36.571 36.571v73.143c0 20.187-16.384 36.571-36.571 36.571z" /><glyph unicode="&#xe670;" d="M804.005 877.678c-10.533-0.183-19.968-4.791-26.514-12.032l-376.357-410.514-155.867 155.867c-6.619 6.619-15.762 10.715-25.856 10.715s-19.237-4.096-25.856-10.715l-109.714-109.714c-6.619-6.619-10.715-15.762-10.715-25.856s4.096-19.237 10.715-25.856l292.571-292.571c6.619-6.619 15.762-10.715 25.856-10.715 10.533 0 20.041 4.462 26.734 11.593l512.037 548.608c6.107 6.51 9.838 15.287 9.838 24.978 0 10.094-4.096 19.237-10.679 25.819l-109.714 109.714c-6.619 6.619-15.762 10.715-25.856 10.715-0.183 0-0.402 0-0.585 0z" /><glyph unicode="&#xe671;" d="M512 1024c-282.77 0-512-229.23-512-512s229.23-512 512-512c282.77 0 512 229.23 512 512s-229.23 512-512 512zM817.643 747.643l50.714-51.714c14.043-14.336 14.043-37.378 0-51.714l-405.857-413.714c-14.043-14.336-36.706-14.336-50.786 0l-253.714 258.5c-14.043 14.336-14.043 37.45 0 51.786l50.786 51.714c14.043 14.336 36.634 14.336 50.714 0l177.571-181 329.857 336.143c11.335 11.482 39.185 11.321 50.714 0z" /><glyph unicode="&#xe672;" d="M512 1024c-282.77 0-512-229.23-512-512s229.23-512 512-512 512 229.23 512 512-229.23 512-512 512zM512 914.286c222.171 0 402.286-180.114 402.286-402.286s-180.114-402.286-402.286-402.286-402.286 180.114-402.286 402.286 180.114 402.286 402.286 402.286zM717.5 695.5c-9.467 0.11-18.826-3.465-25.5-11.071l-240.071-273.286-129.286 129.357c-14.336 14.336-39.17 15.909-51.714 0l-40.714-51.714c-12.544-15.909-14.336-37.378 0-51.714l206.857-206.857c14.336-14.336 38.402-15.25 51.714 0l306.643 350.786c13.349 15.25 14.336 37.378 0 51.714l-51.714 51.714c-7.168 7.168-16.747 10.962-26.214 11.071z" /><glyph unicode="&#xe673;" d="M146.286 1024c-81.042 0-146.286-65.243-146.286-146.286v-731.429c0-81.042 65.243-146.286 146.286-146.286h731.429c81.042 0 146.286 65.243 146.286 146.286v731.429c0 81.042-65.243 146.286-146.286 146.286zM152.357 943.579h719.287c39.863 0 71.936-32.073 71.936-71.936v-719.287c0-39.863-32.073-71.936-71.936-71.936h-719.287c-39.863 0-71.936 32.073-71.936 71.936v719.287c0 39.863 32.073 71.936 71.936 71.936z" /><glyph unicode="&#xe674;" d="M146.286 1024c-81.042 0-146.286-65.243-146.286-146.286v-731.429c0-81.042 65.243-146.286 146.286-146.286h731.429c81.042 0 146.286 65.243 146.286 146.286v731.429c0 81.042-65.243 146.286-146.286 146.286zM152.357 943.571h719.286c39.863 0 71.929-32.066 71.929-71.929v-719.286c0-39.863-32.066-71.929-71.929-71.929h-719.286c-39.863 0-71.929 32.066-71.929 71.929v719.286c0 39.863 32.066 71.929 71.929 71.929zM717.5 695.5c-9.467 0.11-18.826-3.465-25.5-11.071l-240.071-273.286-129.286 129.357c-14.336 14.336-39.17 15.909-51.714 0l-40.714-51.714c-12.544-15.909-14.336-37.378 0-51.714l206.857-206.857c14.336-14.336 38.402-15.25 51.714 0l306.643 350.786c13.349 15.25 14.336 37.378 0 51.714l-51.714 51.714c-7.168 7.168-16.747 10.962-26.214 11.071z" /><glyph unicode="&#xe675;" d="M874.057 149.943c92.672 92.672 149.979 220.672 149.979 362.057s-57.307 269.385-149.979 362.057c-92.672 92.672-220.672 149.979-362.057 149.979s-269.385-57.307-362.057-149.979c-92.672-92.672-149.979-220.672-149.979-362.057s57.307-269.385 149.979-362.057c92.672-92.672 220.672-149.979 362.057-149.979s269.385 57.307 362.057 149.979zM770.633 253.367c-66.158-66.011-157.477-106.825-258.304-106.825-75.081 0-144.896 22.638-202.971 61.44l507.758 505.6c37.961-56.759 60.599-126.537 60.599-201.655 0-100.974-40.923-192.402-107.081-258.56zM713.399 816.786l-506.441-506.441c-37.961 56.759-60.599 126.537-60.599 201.655 0 100.974 40.923 192.402 107.081 258.56 66.158 66.011 157.477 106.825 258.304 106.825 75.081 0 144.896-22.638 202.971-61.44z" /><glyph unicode="&#xe676;" d="M229.925 866.779l-72.923-72.923c-6.619-6.619-10.715-15.762-10.715-25.856s4.096-19.237 10.715-25.856l230.144-230.144-230.144-230.144c-6.619-6.619-10.715-15.762-10.715-25.856s4.096-19.237 10.715-25.856l73.143-73.143c6.619-6.619 15.762-10.715 25.856-10.715s19.237 4.096 25.856 10.715l230.144 230.144 230.144-230.144c6.619-6.619 15.762-10.715 25.856-10.715s19.237 4.096 25.856 10.715l73.143 73.143c6.619 6.619 10.715 15.762 10.715 25.856s-4.096 19.237-10.715 25.856l-230.144 230.144 230.144 230.144c6.619 6.619 10.715 15.762 10.715 25.856s-4.096 19.237-10.715 25.856l-73.143 73.143c-6.619 6.619-15.762 10.715-25.856 10.715s-19.237-4.096-25.856-10.715l-230.144-230.144-230.144 230.144c-6.619 6.619-15.762 10.715-25.856 10.715-10.597-0.157-19.511-4.233-26.075-10.935z" /><glyph unicode="&#xe677;" d="M149.961 874.039c-199.949-199.949-199.949-524.129 0-724.077s524.129-199.949 724.077 0c199.949 199.949 199.949 524.129 0 724.077s-524.129 199.949-724.077 0zM253.401 718.879l51.72 51.72c14.326 14.326 37.393 14.326 51.72 0l155.159-155.159 155.159 155.159c14.326 14.326 37.393 14.326 51.72 0l51.72-51.72c14.326-14.326 14.326-37.393 0-51.72l-155.159-155.159 155.159-155.159c14.326-14.326 14.326-37.393 0-51.72l-51.72-51.72c-14.326-14.326-37.393-14.326-51.72 0l-155.159 155.159-155.159-155.159c-14.326-14.326-37.393-14.326-51.72 0l-51.72 51.72c-14.326 14.326-14.326 37.393 0 51.72l155.159 155.159-155.159 155.159c-14.326 14.326-14.326 37.393 0 51.72z" /><glyph unicode="&#xe678;" d="M149.961 874.039c-199.949-199.949-199.949-524.129 0-724.077s524.129-199.949 724.077 0 199.949 524.129 0 724.077c-199.949 199.949-524.129 199.949-724.077 0zM227.541 796.459c157.099 157.099 411.819 157.099 568.918 0s157.099-411.819 0-568.918c-157.099-157.099-411.819-157.099-568.918 0s-157.099 411.819 0 568.918zM279.261 693.019c-14.275-14.275-14.275-37.445 0-51.72l129.3-129.3-129.3-129.3c-14.275-14.275-14.275-37.445 0-51.72l51.72-51.72c14.275-14.275 37.445-14.275 51.72 0l129.3 129.3 129.3-129.3c14.275-14.275 37.445-14.275 51.72 0l51.72 51.72c14.275 14.275 14.275 37.445 0 51.72l-129.3 129.3 129.3 129.3c14.275 14.275 14.275 37.445 0 51.72l-51.72 51.72c-14.275 14.275-37.445 14.275-51.72 0l-129.3-129.3-129.3 129.3c-14.275 14.275-37.445 14.275-51.72 0z" /><glyph unicode="&#xe679;" d="M229.925 939.922l-146.066-146.066c-6.619-6.619-10.715-15.762-10.715-25.856s4.096-19.237 10.715-25.856l230.144-230.144-230.144-230.144c-6.619-6.619-10.715-15.762-10.715-25.856s4.096-19.237 10.715-25.856l146.286-146.286c6.619-6.619 15.762-10.715 25.856-10.715s19.237 4.096 25.856 10.715l230.144 230.144 230.144-230.144c6.619-6.619 15.762-10.715 25.856-10.715s19.237 4.096 25.856 10.715l146.286 146.286c6.619 6.619 10.715 15.762 10.715 25.856s-4.096 19.237-10.715 25.856l-230.144 230.144 230.144 230.144c6.619 6.619 10.715 15.762 10.715 25.856s-4.096 19.237-10.715 25.856l-146.286 146.286c-6.619 6.619-15.762 10.715-25.856 10.715s-19.237-4.096-25.856-10.715l-230.144-230.144-230.144 230.144c-6.619 6.619-15.762 10.715-25.856 10.715-10.607 0.040-19.639-4.214-26.075-10.935z" /><glyph unicode="&#xe67a;" d="M292.571 786.286c-30.062 0-54.857-24.795-54.857-54.857v-365.714c0-30.062 24.795-54.857 54.857-54.857h365.714c30.062 0 54.857 24.795 54.857 54.857v365.714c0 30.062-24.795 54.857-54.857 54.857zM391.357 684.357l84.071-84.071 84.071 84.071c14.326 14.326 37.388 14.326 51.714 0s14.326-37.388 0-51.714l-84.071-84.071 84.071-84.071c14.326-14.326 14.326-37.388 0-51.714s-37.388-14.326-51.714 0l-84.071 84.071-84.071-84.071c-14.326-14.326-37.388-14.326-51.714 0s-14.326 37.388 0 51.714l84.071 84.071-84.071 84.071c-14.326 14.326-14.326 37.388 0 51.714 15.451 13.204 37.394 14.086 51.714 0z" /><glyph unicode="&#xe67b;" d="M292.571 786.286c-30.062 0-54.857-24.795-54.857-54.857v-365.714c0-30.062 24.795-54.857 54.857-54.857h365.714c30.062 0 54.857 24.795 54.857 54.857v365.714c0 30.062-24.795 54.857-54.857 54.857zM292.571 749.714h365.714c10.459 0 18.286-7.826 18.286-18.286v-365.714c0-10.459-7.826-18.286-18.286-18.286h-365.714c-10.459 0-18.286 7.826-18.286 18.286v365.714c0 10.459 7.826 18.286 18.286 18.286zM373.143 689.714c-8.658 0.704-17.072-1.929-23.143-8l-7.714-7.714c-12.142-12.142-10.442-33.558 3.857-47.857l77.571-77.571-77.571-77.571c-14.299-14.299-15.999-35.715-3.857-47.857l7.714-7.786c12.142-12.142 33.594-10.334 47.857 3.929l77.571 77.571 77.571-77.571c14.263-14.263 35.715-16.070 47.857-3.929l7.786 7.786c12.142 12.142 10.371 33.558-3.929 47.857l-77.571 77.571 77.571 77.571c14.299 14.299 16.070 35.715 3.929 47.857l-7.786 7.714c-12.142 12.142-33.594 10.406-47.857-3.857l-77.571-77.571-77.571 77.571c-7.131 7.131-16.056 11.153-24.714 11.857z" /><glyph unicode="&#xe67c;" d="M182.857 585.143h658.286c20.187 0 36.571-16.384 36.571-36.571v-73.143c0-20.187-16.384-36.571-36.571-36.571h-658.286c-20.187 0-36.571 16.384-36.571 36.571v73.143c0 20.187 16.384 36.571 36.571 36.571z" /><glyph unicode="&#xe67d;" d="M512 1024c-282.77 0-512-229.23-512-512s229.23-512 512-512c282.77 0 512 229.23 512 512s-229.23 512-512 512zM219.429 585.143h585.143c20.261 0 36.571-16.311 36.571-36.571v-73.143c0-20.261-16.311-36.571-36.571-36.571h-585.143c-20.261 0-36.571 16.311-36.571 36.571v73.143c0 20.261 16.311 36.571 36.571 36.571z" /><glyph unicode="&#xe67e;" d="M512 1024c-282.77 0-512-229.23-512-512s229.23-512 512-512 512 229.23 512 512-229.23 512-512 512zM512 914.286c222.171 0 402.286-180.114 402.286-402.286s-180.114-402.286-402.286-402.286-402.286 180.114-402.286 402.286 180.114 402.286 402.286 402.286zM256 585.143c-20.187 0-36.571-16.384-36.571-36.571v-73.143c0-20.187 16.384-36.571 36.571-36.571h512c20.187 0 36.571 16.384 36.571 36.571v73.143c0 20.187-16.384 36.571-36.571 36.571z" /><glyph unicode="&#xe67f;" d="M146.286 658.286h731.429c40.411 0 73.143-32.731 73.143-73.143v-146.286c0-40.411-32.731-73.143-73.143-73.143h-731.429c-40.411 0-73.143 32.731-73.143 73.143v146.286c0 40.411 32.731 73.143 73.143 73.143z" /><glyph unicode="&#xe680;" d="M292.571 786.286c-30.062 0-54.857-24.795-54.857-54.857v-365.714c0-30.062 24.795-54.857 54.857-54.857h365.714c30.062 0 54.857 24.795 54.857 54.857v365.714c0 30.062-24.795 54.857-54.857 54.857zM365.714 585.143h219.429c20.261 0 36.571-16.311 36.571-36.571s-16.311-36.571-36.571-36.571h-219.429c-20.261 0-36.571 16.311-36.571 36.571s16.311 36.571 36.571 36.571z" /><glyph unicode="&#xe681;" d="M292.571 786.286c-30.062 0-54.857-24.795-54.857-54.857v-365.714c0-30.062 24.795-54.857 54.857-54.857h365.714c30.062 0 54.857 24.795 54.857 54.857v365.714c0 30.062-24.795 54.857-54.857 54.857zM292.571 749.714h365.714c10.459 0 18.286-7.826 18.286-18.286v-365.714c0-10.459-7.826-18.286-18.286-18.286h-365.714c-10.459 0-18.286 7.826-18.286 18.286v365.714c0 10.459 7.826 18.286 18.286 18.286zM365.714 585.143c-20.187 0-36.571-13.919-36.571-31.071v-11c0-17.152 16.384-31.071 36.571-31.071h219.429c20.187 0 36.571 13.919 36.571 31.071v11c0 17.152-16.384 31.071-36.571 31.071z" /><glyph unicode="&#xe682;" d="M475.429 877.714c-20.261 0-36.571-16.311-36.571-36.571v-256h-256c-20.261 0-36.571-16.311-36.571-36.571v-73.143c0-20.261 16.311-36.571 36.571-36.571h256v-256c0-20.261 16.311-36.571 36.571-36.571h73.143c20.261 0 36.571 16.311 36.571 36.571v256h256c20.261 0 36.571 16.311 36.571 36.571v73.143c0 20.261-16.311 36.571-36.571 36.571h-256v256c0 20.261-16.311 36.571-36.571 36.571z" /><glyph unicode="&#xe683;" d="M512 1024c-282.77 0-512-229.23-512-512s229.23-512 512-512c282.77 0 512 229.23 512 512s-229.23 512-512 512zM475.429 841.143h73.143c20.261 0 36.571-16.311 36.571-36.571v-219.429h219.429c20.261 0 36.571-16.311 36.571-36.571v-73.143c0-20.261-16.311-36.571-36.571-36.571h-219.429v-219.429c0-20.261-16.311-36.571-36.571-36.571h-73.143c-20.261 0-36.571 16.311-36.571 36.571v219.429h-219.429c-20.261 0-36.571 16.311-36.571 36.571v73.143c0 20.261 16.311 36.571 36.571 36.571h219.429v219.429c0 20.261 16.311 36.571 36.571 36.571z" /><glyph unicode="&#xe684;" d="M512 1024c-282.77 0-512-229.23-512-512s229.23-512 512-512 512 229.23 512 512-229.23 512-512 512zM512 914.286c222.171 0 402.286-180.114 402.286-402.286s-180.114-402.286-402.286-402.286-402.286 180.114-402.286 402.286 180.114 402.286 402.286 402.286zM475.429 804.571c-20.187 0-36.571-16.384-36.571-36.571v-182.857h-182.857c-20.187 0-36.571-16.384-36.571-36.571v-73.143c0-20.187 16.384-36.571 36.571-36.571h182.857v-182.857c0-20.187 16.384-36.571 36.571-36.571h73.143c20.187 0 36.571 16.384 36.571 36.571v182.857h182.857c20.187 0 36.571 16.384 36.571 36.571v73.143c0 20.187-16.384 36.571-36.571 36.571h-182.857v182.857c0 20.187-16.384 36.571-36.571 36.571z" /><glyph unicode="&#xe685;" d="M438.857 950.857c-40.521 0-73.143-32.622-73.143-73.143v-219.429h-219.429c-40.521 0-73.143-32.622-73.143-73.143v-146.286c0-40.521 32.622-73.143 73.143-73.143h219.429v-219.429c0-40.521 32.622-73.143 73.143-73.143h146.286c40.521 0 73.143 32.622 73.143 73.143v219.429h219.429c40.521 0 73.143 32.622 73.143 73.143v146.286c0 40.521-32.622 73.143-73.143 73.143h-219.429v219.429c0 40.521-32.622 73.143-73.143 73.143z" /><glyph unicode="&#xe686;" d="M292.571 786.286c-30.062 0-54.857-24.795-54.857-54.857v-365.714c0-30.062 24.795-54.857 54.857-54.857h365.714c30.062 0 54.857 24.795 54.857 54.857v365.714c0 30.062-24.795 54.857-54.857 54.857zM475.429 694.857c20.261 0 36.571-16.311 36.571-36.571v-73.143h73.143c20.261 0 36.571-16.311 36.571-36.571s-16.311-36.571-36.571-36.571h-73.143v-73.143c0-20.261-16.311-36.571-36.571-36.571s-36.571 16.311-36.571 36.571v73.143h-73.143c-20.261 0-36.571 16.311-36.571 36.571s16.311 36.571 36.571 36.571h73.143v73.143c0 20.261 16.311 36.571 36.571 36.571z" /><glyph unicode="&#xe687;" d="M292.571 786.286c-30.062 0-54.857-24.795-54.857-54.857v-365.714c0-30.062 24.795-54.857 54.857-54.857h365.714c30.062 0 54.857 24.795 54.857 54.857v365.714c0 30.062-24.795 54.857-54.857 54.857zM292.571 749.714h365.714c10.459 0 18.286-7.826 18.286-18.286v-365.714c0-10.459-7.826-18.286-18.286-18.286h-365.714c-10.459 0-18.286 7.826-18.286 18.286v365.714c0 10.459 7.826 18.286 18.286 18.286zM475.429 694.857c-20.187 0-36.571-13.919-36.571-31.071v-78.643h-73.143c-20.187 0-36.571-13.919-36.571-31.071v-11c0-17.152 16.384-31.071 36.571-31.071h73.143v-78.643c0-17.152 16.384-31.071 36.571-31.071s36.571 13.919 36.571 31.071v78.643h73.143c20.187 0 36.571 13.919 36.571 31.071v11c0 17.152-16.384 31.071-36.571 31.071h-73.143v78.643c0 17.152-16.384 31.071-36.571 31.071z" /><glyph unicode="&#xe688;" d="M658.392 915.146l-73.156-73.218 256.047-256.262 73.156 73.218c48.941 51.326 48.173 100.491 0 146.435l-109.734 109.827c-46.637 46.676-97.81 48.543-146.312 0zM548.658 805.32l-475.515-475.915v-256.262l256.047 0.073 475.515 475.842zM566.947 713.798l36.578-36.609-329.203-329.48-36.578 36.609zM201.166 347.709c55.818-55.865 93.603-94.378 144.593-147.204l1.719 0.769-54.867-54.913h-73.156v73.218h-73.156v73.218z" /><glyph unicode="&#xe689;" d="M329.143 1024c-20.261 0-36.571-16.311-36.571-36.571v-768h621.714c20.261 0 36.571 16.311 36.571 36.571v402.286h-292.571c-36.571 0-73.143 0-73.143 73.143v292.571zM658.286 1024v-292.571h292.571zM109.714 877.714c-20.261 0-36.571-16.311-36.571-36.571v-804.571c0-20.261 16.311-36.571 36.571-36.571h585.143c20.261 0 34.555 16.411 36.571 36.571v109.714h-512v731.429z" /><glyph unicode="&#xe68a;" d="M974.731 309.017c-71.131 109.601-193.134 157.873-272.53 107.736-6.875-4.315-13.166-9.252-18.944-14.701l-84.736 130.702 195.694 302.911c16.018 29.183 21.943 63.925 14.153 98.849-7.424 33.389-26.149 61.474-51.31 81.259l-13.093 8.228-231.973-357.766-231.973 357.766-13.093-8.228c-25.161-19.748-43.886-47.834-51.31-81.259-7.79-34.925-1.865-69.666 14.153-98.849l195.694-302.911-84.736-130.702c-5.778 5.449-12.069 10.386-18.944 14.701-79.397 50.101-201.435 1.865-272.53-107.736s-64.439-239.096 14.958-289.197c79.397-50.101 201.435-1.865 272.53 107.736l175.25 271.277 175.25-271.277c71.131-109.601 193.134-157.873 272.53-107.736 79.397 50.101 86.089 179.596 14.958 289.197zM250.47 182.009c-32-49.333-73.106-73.36-100.864-79.357-9.070-1.975-21.65-3.182-30.208 2.231-9.472 5.997-15.799 21.832-16.859 42.348-1.719 33.279 10.277 72.409 32.951 107.333 32 49.333 73.106 73.36 100.864 79.357 9.070 1.975 21.65 3.182 30.208-2.231 9.472-5.998 15.799-21.832 16.859-42.348 1.719-33.279-10.277-72.409-32.951-107.333zM511.956 485.431c-18.871 0-34.121 15.067-34.121 33.645s15.287 33.645 34.121 33.645c18.871 0 34.121-15.067 34.121-33.645s-15.287-33.645-34.121-33.645zM921.41 147.267c-1.061-20.552-7.351-36.387-16.859-42.348-8.558-5.412-21.175-4.206-30.208-2.231-27.758 5.997-68.864 30.024-100.864 79.357-22.674 34.925-34.67 74.055-32.951 107.333 1.061 20.516 7.351 36.387 16.859 42.348 8.558 5.412 21.175 4.206 30.208 2.231 27.758-5.997 68.864-30.024 100.864-79.357 22.674-34.925 34.67-74.055 32.951-107.333z" /><glyph unicode="&#xe68b;" d="M365.714 1024c-36.571 0-73.143-36.571-73.143-73.143h-146.286c-40.521 0-73.143-32.622-73.143-73.143v-694.857c0-40.521 32.622-36.571 73.143-36.571h146.286v347.429l237.714 237.714h274.286v146.286c0 40.521-32.622 73.143-73.143 73.143h-146.286c0 36.571-36.571 73.143-73.143 73.143zM402.286 950.857h73.143c20.261 0 36.571-16.311 36.571-36.571v-36.571h128c10.13 0 18.286-8.155 18.286-18.286v-36.571c0-10.13-8.155-18.286-18.286-18.286h-402.286c-10.13 0-18.286 8.155-18.286 18.286v36.571c0 10.13 8.155 18.286 18.286 18.286h128v36.571c0 20.261 16.311 36.571 36.571 36.571zM584.857 658.286l-219.143-219.143v-0.286h219.429v219.429zM658.286 658.286v-256c0-20.261-15.028-36.571-33.643-36.571h-258.929v-329.143c0-20.261 16.311-36.571 36.571-36.571h512c20.261 0 36.571 16.311 36.571 36.571v585.143c0 20.261-16.311 36.571-36.571 36.571z" /><glyph unicode="&#xe68c;" d="M36.571 1024c-20.261 0-36.571-16.311-36.571-36.571v-950.857c0-20.261 16.311-36.571 36.571-36.571h109.714v438.857c0 40.521 32.622 73.143 73.143 73.143h585.143c40.521 0 73.143-32.622 73.143-73.143v-438.857h109.714c20.261 0 36.571 16.311 36.571 36.571v841.143l-146.286 146.286zM219.429 950.857h585.143v-256c0-20.261-16.311-36.571-36.571-36.571h-512c-20.261 0-36.571 16.311-36.571 36.571zM585.143 914.286v-219.429h146.286v219.429zM219.429 438.857v-73.143h585.143v73.143zM219.429 292.571v-73.143h585.143v73.143zM219.429 146.286v-73.143h585.143v73.143z" /><glyph unicode="&#xe68d;" d="M419.474 896c-4.643-0.149-9.054-2.064-12.336-5.357l-292.075-292.571c-7.126-7.141-7.126-18.716 0-25.857l292.075-292.571c11.5-11.512 31.155-3.357 31.161 12.929v145c173.151-3.339 256.409-50.225 282.021-100.357 13.303-26.039 13.397-53.928 3.28-81.786s-30.96-55.098-58.971-76.214c-14.071-10.549-6.594-32.969 10.981-32.929h109.528c4.304-0.005 8.471 1.513 11.766 4.286 32.282 27.144 57.014 75.705 70.594 134.286s15.165 127.411-4.706 194.071c-38.739 129.954-164.26 246.321-424.493 253.929v144.857c0.004 10.326-8.522 18.607-18.825 18.286z" /><glyph unicode="&#xe68e;" d="M604.533 896c4.643-0.149 9.054-2.064 12.336-5.357l292.075-292.571c7.126-7.141 7.126-18.716 0-25.857l-292.075-292.571c-11.5-11.512-31.155-3.357-31.161 12.929v145c-173.151-3.339-256.409-50.225-282.021-100.357-13.303-26.039-13.397-53.928-3.28-81.786s30.96-55.098 58.971-76.214c14.071-10.549 6.594-32.969-10.981-32.929h-109.528c-4.304-0.005-8.471 1.513-11.766 4.286-32.282 27.144-57.014 75.705-70.594 134.286s-15.165 127.411 4.706 194.071c38.739 129.954 164.26 246.321 424.493 253.929v144.857c-0.004 10.326 8.522 18.607 18.825 18.286z" /><glyph unicode="&#xe68f;" d="M457.143 950.857c-10.13 0-18.286-8.155-18.286-18.286v-36.571c0-10.13 8.155-18.286 18.286-18.286h128v-731.429h-128c-10.13 0-18.286-8.155-18.286-18.286v-36.571c0-10.13 8.155-18.286 18.286-18.286h329.143c10.13 0 18.286 8.155 18.286 18.286v36.571c0 10.13-8.155 18.286-18.286 18.286h-128v731.429h128c10.13 0 18.286 8.155 18.286 18.286v36.571c0 10.13-8.155 18.286-18.286 18.286zM36.571 804.571c-20.261 0-36.571-16.311-36.571-36.571v-512c0-20.261 16.311-36.571 36.571-36.571h512v73.143h-457.143c-10.13 0-18.286 8.155-18.286 18.286v402.286c0 10.13 8.155 18.286 18.286 18.286h457.143v73.143zM694.857 804.571v-73.143h237.714c10.13 0 18.286-8.155 18.286-18.286v-402.286c0-10.13-8.155-18.286-18.286-18.286h-237.714v-73.143h292.571c20.261 0 36.571 16.311 36.571 36.571v512c0 20.261-16.311 36.571-36.571 36.571zM164.571 658.286c-10.13 0-18.286-8.155-18.286-18.286v-256c0-10.13 8.155-18.286 18.286-18.286h36.571c10.13 0 18.286 8.155 18.286 18.286v256c0 10.13-8.155 18.286-18.286 18.286z" /><glyph unicode="&#xe690;" d="M421 1024c-30.72-0.731-59.267-16.801-76-50.786l-42.071-95.5h-211.5c-10.13 0-18.286-8.155-18.286-18.286v-36.571c0-10.13 8.155-18.286 18.286-18.286h58.429l69.571-682.571c15.431-85.52 73.143-122 128-122h329.143c54.857 0 112.293 37.267 128 123.429 23.158 226.98 46.375 454.102 69.571 681.143h58.429c10.13 0 18.286 8.155 18.286 18.286v36.571c0 10.13-8.155 18.286-18.286 18.286h-211.071l-42.071 95.5c-16.733 33.984-45.28 50.054-76 50.786zM421.571 950.857h181.286c3.828-0.756 7.057-2.848 9.714-6.286l29.5-66.857h-259.714l29.5 66.857c2.658 3.438 5.886 5.53 9.714 6.286zM357.929 731.429h36.571c10.13 0 18.691-8.080 19.214-18.071l28.786-549c0.524-9.992-7.227-18.071-17.357-18.071h-36.571c-10.13 0-18.691 8.080-19.214 18.071l-28.786 549c-0.524 9.992 7.227 18.071 17.357 18.071zM629.5 731.429h36.571c10.13 0 17.881-8.080 17.357-18.071l-28.786-549c-0.524-9.992-9.084-18.071-19.214-18.071h-36.571c-10.13 0-17.881 8.080-17.357 18.071l28.786 549c0.524 9.992 9.084 18.071 19.214 18.071z" /><glyph unicode="&#xe691;" d="M421 1024c-30.72-0.731-59.267-16.801-76-50.786l-42.071-95.5h-211.5c-10.13 0-18.286-8.155-18.286-18.286v-36.571c0-10.13 8.155-18.286 18.286-18.286h58.429l69.571-682.571c15.431-85.52 73.143-122 128-122h329.143c54.857 0 112.293 37.267 128 123.429 23.158 226.98 46.375 454.102 69.571 681.143h58.429c10.13 0 18.286 8.155 18.286 18.286v36.571c0 10.13-8.155 18.286-18.286 18.286h-211.071l-42.071 95.5c-16.733 33.984-45.28 50.054-76 50.786zM421.571 950.857h181.286c3.828-0.756 7.057-2.848 9.714-6.286l29.5-66.857h-259.714l29.5 66.857c2.658 3.438 5.886 5.53 9.714 6.286zM223.071 804.571h577.857l-68.571-672c-4.645-31.492-23.058-59.227-55.786-59.429h-329.143c-28.617 0.592-51.775 26.412-55.786 59.429zM372.571 731.429c-10.13 0-17.881-8.080-17.357-18.071l28.786-549c0.524-9.992 9.084-18.071 19.214-18.071h36.571c10.13 0 17.881 8.080 17.357 18.071l-28.786 549c-0.524 9.992-9.084 18.071-19.214 18.071zM614.857 731.429c-10.13 0-18.691-8.080-19.214-18.071l-28.786-549c-0.524-9.992 7.227-18.071 17.357-18.071h36.571c10.13 0 18.691 8.080 19.214 18.071l28.786 549c0.524 9.992-7.227 18.071-17.357 18.071z" /><glyph unicode="&#xe692;" d="M256 1024c-20.187 0-36.575-16.384-36.571-36.571l0.037-182.857h-36.608c-11.52 0-21.76-5.339-28.453-13.641l-146.359-182.93c-4.974-6.181-8.009-14.153-8.009-22.857v-329.143c0-20.187 16.384-36.571 36.571-36.571h168.631l-57.125-171.154c-1.17-3.438-1.829-7.57-1.829-11.703 0-20.187 16.384-36.571 36.571-36.571h658.286c20.187 0 36.571 16.384 36.571 36.571 0 4.133-0.585 8.009-1.829 11.703l-57.125 171.154h168.631c20.187 0 36.608 16.384 36.608 36.571v329.143c0 8.667-3.072 16.64-8.082 22.894l-146.249 182.784c-6.766 8.375-17.006 13.751-28.526 13.751h-36.571v182.857c0 20.187-16.384 36.573-36.571 36.571-170.587 0.033-341.687-0.105-512 0zM292.571 950.857h438.857v-219.429h-438.857zM822.894 585.143h109.714c11.845 0.052 18.257-8.642 18.286-18.286v-36.571c0-10.13-8.155-18.286-18.286-18.286h-109.714c-10.13 0-18.286 8.155-18.286 18.286v36.571c0 10.13 8.155 18.286 18.286 18.286zM355.547 438.857h313.015l121.856-365.714h-556.727zM448.037 365.714c-20.187 0-36.571-16.384-36.571-36.571s16.384-36.571 36.571-36.571h146.286c20.187 0 36.571 16.384 36.571 36.571s-16.384 36.571-36.571 36.571zM374.894 219.429c-20.187 0-36.571-16.384-36.571-36.571s16.384-36.571 36.571-36.571h274.286c20.187 0 36.571 16.384 36.571 36.571s-16.384 36.571-36.571 36.571z" /><glyph unicode="&#xe693;" d="M256.036 1024c-20.19 0-36.577-16.384-36.577-36.571v-182.857h-36.577c-11.119 0-21.626-5.047-28.575-13.714l-146.306-182.857c-5.194-6.473-8.001-14.555-8.001-22.857v-329.143c0-20.187 16.386-36.571 36.577-36.571h168.595l-57.079-171.286c-7.901-23.698 9.737-48.179 34.719-48.143h658.378c24.982 0 42.62 24.481 34.719 48.143l-57.079 171.286h168.595c20.19 0 36.577 16.384 36.577 36.571v329.143c0 8.302-2.807 16.384-8.001 22.857l-146.306 182.857c-6.95 8.667-17.456 13.714-28.575 13.714h-36.577v182.857c0 20.187-16.386 36.571-36.577 36.571zM292.612 950.857h438.918v-219.429h-438.918zM200.385 731.429h19.074v-36.571c0-20.187 16.386-36.571 36.577-36.571h512.071c20.19 0 36.577 16.384 36.577 36.571v36.571h19.003l127.303-159.143v-279.714l-156.165-1.214-65.223 195.643c-4.974 14.921-18.92 25.071-34.648 25.071h-365.765c-15.764 0-29.745-10.114-34.719-25.071l-65.223-195.643-156.093 1.214v279.714zM841.26 585.143c-20.19 0-36.577-16.384-36.577-36.571s16.386-36.571 36.577-36.571 36.577 16.384 36.577 36.571-16.386 36.571-36.577 36.571zM355.478 438.857h313.044l121.874-365.714h-556.792zM448.063 365.714c-20.19 0-36.577-16.384-36.577-36.571s16.386-36.571 36.577-36.571h146.306c20.19 0 36.577 16.384 36.577 36.571s-16.386 36.571-36.577 36.571zM374.909 219.429c-20.19 0-36.577-16.384-36.577-36.571s16.386-36.571 36.577-36.571h274.324c20.19 0 36.577 16.384 36.577 36.571s-16.386 36.571-36.577 36.571z" /><glyph unicode="&#xe694;" d="M146.286 1024c-40.521 0-73.143-32.622-73.143-73.143v-877.714c0-40.521 32.622-73.143 73.143-73.143h731.429c40.521 0 73.143 32.622 73.143 73.143v585.143h-146.286v-438.857h36.571c20.261 0 36.571-16.311 36.571-36.571s-16.311-36.571-36.571-36.571h-36.571v-36.571c0-20.261-16.311-36.571-36.571-36.571s-36.571 16.311-36.571 36.571v36.571h-438.857v-36.571c0-20.261-16.092-36.571-36.071-36.571h-1c-19.98 0-36.071 16.311-36.071 36.571v36.571h-36.571c-20.261 0-36.571 16.311-36.571 36.571s16.311 36.571 36.571 36.571h36.571v585.143h-36.571c-20.261 0-36.571 16.311-36.571 36.571s16.311 36.571 36.571 36.571h36.571v36.571c0 20.261 16.092 36.571 36.071 36.571h1c19.98 0 36.071-16.311 36.071-36.571v-36.571h292.571v146.286zM658.286 1024v-292.571h292.571zM292.571 804.571v-585.143h438.857v438.857h-109.714c-20.261 0-36.571 16.311-36.571 36.571v109.714z" /><glyph unicode="&#xe695;" d="M182.857 1024c-20.261 0-36.571-16.311-36.571-36.571v-109.714h-73.143c-40.521 0-73.143-32.622-73.143-73.143s32.622-73.143 73.143-73.143h73.143v-146.286h-73.143c-40.521 0-73.143-32.622-73.143-73.143s32.622-73.143 73.143-73.143h73.143v-146.286h-73.143c-40.521 0-73.143-32.622-73.143-73.143s32.622-73.143 73.143-73.143h73.143v-109.714c0-20.261 16.311-36.571 36.571-36.571h804.571c20.261 0 36.571 16.311 36.571 36.571v950.857c0 20.261-16.311 36.571-36.571 36.571zM256 950.857h73.143c20.261 0 36.571-16.311 36.571-36.571v-804.571c0-20.261-16.311-36.571-36.571-36.571h-73.143c-20.261 0-36.571 16.311-36.571 36.571v36.571c40.521 0 73.143 32.622 73.143 73.143s-32.622 73.143-73.143 73.143v146.286c40.521 0 73.143 32.622 73.143 73.143s-32.622 73.143-73.143 73.143v146.286c40.521 0 73.143 32.622 73.143 73.143s-32.622 73.143-73.143 73.143v36.571c0 20.261 16.311 36.571 36.571 36.571z" /><glyph unicode="&#xe696;" d="M73.143 950.857c-40.521 0-73.143-32.622-73.143-73.143v-731.429c0-40.521 32.622-73.143 73.143-73.143h877.714c40.521 0 73.143 32.622 73.143 73.143v731.429c0 40.521-32.622 73.143-73.143 73.143zM73.143 731.429h292.571v-146.286h-292.571zM438.857 731.429h219.429v-146.286h-219.429zM731.429 731.429h219.429v-146.286h-219.429zM73.143 512h292.571v-146.286h-292.571zM438.857 512h219.429v-146.286h-219.429zM731.429 512h219.429v-146.286h-219.429zM73.143 292.571h292.571v-146.286h-292.571zM438.857 292.571h219.429v-146.286h-219.429zM731.429 292.571h219.429v-146.286h-219.429z" /><glyph unicode="&#xe697;" d="M914.286 950.857c20.187 0 36.571-16.384 36.571-36.571v-329.143c0-10.094-4.096-19.237-10.715-25.856l-475.429-475.429c-6.619-6.619-15.762-10.715-25.856-10.715s-19.237 4.096-25.856 10.715l-329.143 329.143c-6.619 6.619-10.715 15.762-10.715 25.856s4.096 19.237 10.715 25.856l475.429 475.429c6.619 6.619 15.762 10.715 25.856 10.715zM749.714 841.143c-50.505 0-91.429-40.923-91.429-91.429s40.923-91.429 91.429-91.429 91.429 40.923 91.429 91.429-40.923 91.429-91.429 91.429z" /><glyph unicode="&#xe698;" d="M475.429 877.714c-9.699-0.002-19-3.856-25.857-10.714l-438.857-438.857c-14.276-14.282-14.276-37.432 0-51.714l292.571-292.571c14.282-14.276 37.432-14.276 51.714 0l29 29-263.571 263.571c-14.276 14.282-14.276 37.432 0 51.714l438.857 438.857c6.858 6.858 16.158 10.712 25.857 10.714zM694.857 877.714c-9.699-0.002-19-3.856-25.857-10.714l-438.857-438.857c-14.276-14.282-14.276-37.432 0-51.714l292.571-292.571c14.282-14.276 37.432-14.276 51.714 0l438.857 438.857c6.858 6.858 10.712 16.158 10.714 25.857v292.571c-0.002 20.197-16.374 36.569-36.571 36.571zM877.714 804.571c40.396 0 73.143-32.747 73.143-73.143s-32.747-73.143-73.143-73.143c-40.396 0-73.143 32.747-73.143 73.143s32.747 73.143 73.143 73.143z" /><glyph unicode="&#xe699;" d="M576 704.018l128-128-256-256-128 128zM1001.509 726.51l-73.509 73.509-32-32c-16.384-16.384-39.022-26.514-64-26.514-49.993 0-90.514 40.521-90.514 90.514 0 25.015 10.13 47.616 26.514 64l32 32-73.509 73.509c-29.952 29.952-78.994 29.952-108.983 0l-595.017-595.054c-29.952-29.952-29.952-78.994 0-108.983l73.509-73.509 31.963 31.963c16.384 16.384 39.022 26.551 64.037 26.551 49.993 0 90.514-40.521 90.514-90.514 0-25.015-10.13-47.616-26.514-64l-32-32 73.509-73.509c29.952-29.952 78.994-29.952 108.983 0l595.017 595.054c29.952 29.952 29.952 79.031 0 108.983zM448 192.018l-256 256 384 384 256-256z" /><glyph unicode="&#xe69a;" d="M164.577 950.857c-10.094 0-18.286-8.192-18.286-18.286v-128h731.429v54.857c0 10.094-8.192 18.286-18.286 18.286h-394.715l-67.803 67.803c-3.438 3.438-8.082 5.339-12.946 5.339-73.099 0-146.423 0-219.392 0zM18.292 731.429c-11.813 0-20.517-11.008-17.774-22.491l146.286-621.714c1.938-8.229 9.326-14.080 17.774-14.080h694.857c8.485 0 15.835 5.815 17.774 14.080l146.286 621.714c2.706 11.483-5.998 22.491-17.774 22.491z" /><glyph unicode="&#xe69b;" d="M164.577 950.857c-10.094 0-18.286-8.192-18.286-18.286v-274.286h731.429v201.143c0 10.094-8.192 18.286-18.286 18.286h-394.715l-67.803 67.803c-3.438 3.438-8.082 5.339-12.946 5.339zM18.292 585.143c-11.813 0-20.517-11.008-17.774-22.491l146.286-475.429c1.938-8.229 9.326-14.080 17.774-14.080h694.857c8.485 0 15.835 5.815 17.774 14.080l146.286 475.429c2.706 11.483-5.998 22.491-17.774 22.491z" /><glyph unicode="&#xe69c;" d="M146.286 1024c-40.521 0-73.143-32.622-73.143-73.143v-877.714c0-40.521 32.622-73.143 73.143-73.143h731.429c40.521 0 73.143 32.622 73.143 73.143v585.143h-329.143c-20.261 0-36.571 16.311-36.571 36.571v329.143zM658.286 1024v-292.571h292.571z" /><glyph unicode="&#xe69d;" d="M1024 146.286c0-40.521-32.622-73.143-73.143-73.143h-877.714c-40.521 0-73.143 32.622-73.143 73.143v731.429c0 40.521 32.622 73.143 73.143 73.143h585.143v-329.143c0-20.261 16.311-36.571 36.571-36.571h329.143zM1024 658.286h-292.571v292.571z" /><glyph unicode="&#xe69e;" d="M877.714 1024l-548.608-329.143 0.073-479.086c-11.191 2.304-24.027 3.657-37.303 3.657-80.055 0-145.554-49.115-145.554-109.714s65.499-109.714 146.286-109.714c80.786 0 146.286 49.115 146.286 109.714v475.429l328.997 189.769v-340.37c-11.191 2.304-24.027 3.657-37.303 3.657-80.055 0-145.554-49.115-145.554-109.714s65.499-109.714 146.286-109.714 146.395 49.115 146.395 109.714z" /><glyph unicode="&#xe69f;" d="M73.143 950.857c-40.521 0-73.143-32.622-73.143-73.143v-731.429c0-40.521 32.622-73.143 73.143-73.143h877.714c40.521 0 73.143 32.622 73.143 73.143v731.429c0 40.521-32.622 73.143-73.143 73.143zM109.714 877.714h73.143c20.261 0 36.571-16.311 36.571-36.571v-73.143c0-20.261-16.311-36.571-36.571-36.571h-73.143c-20.261 0-36.571 16.311-36.571 36.571v73.143c0 20.261 16.311 36.571 36.571 36.571zM329.143 877.714h365.714c20.261 0 36.571-16.311 36.571-36.571v-219.429c0-20.261-16.311-36.571-36.571-36.571h-365.714c-20.261 0-36.571 16.311-36.571 36.571v219.429c0 20.261 16.311 36.571 36.571 36.571zM841.143 877.714h73.143c20.261 0 36.571-16.311 36.571-36.571v-73.143c0-20.261-16.311-36.571-36.571-36.571h-73.143c-20.261 0-36.571 16.311-36.571 36.571v73.143c0 20.261 16.311 36.571 36.571 36.571zM109.714 585.143h73.143c20.261 0 36.571-16.311 36.571-36.571v-73.143c0-20.261-16.311-36.571-36.571-36.571h-73.143c-20.261 0-36.571 16.311-36.571 36.571v73.143c0 20.261 16.311 36.571 36.571 36.571zM841.143 585.143h73.143c20.261 0 36.571-16.311 36.571-36.571v-73.143c0-20.261-16.311-36.571-36.571-36.571h-73.143c-20.261 0-36.571 16.311-36.571 36.571v73.143c0 20.261 16.311 36.571 36.571 36.571zM329.143 438.857h365.714c20.261 0 36.571-16.311 36.571-36.571v-219.429c0-20.261-16.311-36.571-36.571-36.571h-365.714c-20.261 0-36.571 16.311-36.571 36.571v219.429c0 20.261 16.311 36.571 36.571 36.571zM109.714 292.571h73.143c20.261 0 36.571-16.311 36.571-36.571v-73.143c0-20.261-16.311-36.571-36.571-36.571h-73.143c-20.261 0-36.571 16.311-36.571 36.571v73.143c0 20.261 16.311 36.571 36.571 36.571zM841.143 292.571h73.143c20.261 0 36.571-16.311 36.571-36.571v-73.143c0-20.261-16.311-36.571-36.571-36.571h-73.143c-20.261 0-36.571 16.311-36.571 36.571v73.143c0 20.261 16.311 36.571 36.571 36.571z" /><glyph unicode="&#xe6a0;" d="M109.714 804.571c-60.782 0-109.714-48.933-109.714-109.714v-365.714c0-60.782 48.933-109.714 109.714-109.714h438.857c60.782 0 109.714 48.933 109.714 109.714v81.714l310.357-186.214c5.376-3.255 11.837-5.214 18.786-5.214 20.187 0 36.571 16.313 36.571 36.5v512.143c0 20.187-16.384 36.5-36.571 36.5-6.949 0-13.41-1.959-18.786-5.214l-310.357-186.214v81.714c0 60.782-48.933 109.714-109.714 109.714z" /><glyph unicode="&#xe6a1;" d="M73.143 950.857c-40.521 0-73.143-32.622-73.143-73.143v-731.429c0-40.521 32.622-73.143 73.143-73.143h877.714c40.521 0 73.143 32.622 73.143 73.143v731.429c0 40.521-32.622 73.143-73.143 73.143zM109.714 877.714h804.571c20.261 0 36.571-16.311 36.571-36.571v-658.286c0-20.261-16.311-36.571-36.571-36.571h-804.571c-20.261 0-36.571 16.311-36.571 36.571v658.286c0 20.261 16.311 36.571 36.571 36.571zM365.714 804.571l-219.429-365.714v-219.429h731.429v365.714l-146.286-219.429h-73.143zM694.857 804.571c-60.599 0-109.714-49.115-109.714-109.714s49.115-109.714 109.714-109.714 109.714 49.115 109.714 109.714c0 60.599-49.115 109.714-109.714 109.714z" /><glyph unicode="&#xe6a2;" d="M146.286 1024c-40.521 0-73.143-32.622-73.143-73.143v-877.714c0-40.521 32.622-73.143 73.143-73.143h731.429c40.521 0 73.143 32.622 73.143 73.143v585.143h-329.143c-20.261 0-36.571 16.311-36.571 36.571v329.143zM658.286 1024v-292.571h292.571zM390.071 548.571h48.786v-109.714l-146.286-109.714 146.286-109.714v-109.714h-48.786l-243.785 182.857v73.143zM585.143 548.571h48.786l243.785-182.857v-73.143l-243.785-182.857h-48.786v109.714l146.286 109.714-146.286 109.714z" /><glyph unicode="&#xe6a3;" d="M146.286 1024c-40.521 0-73.143-32.622-73.143-73.143v-877.714c0-40.521 32.622-73.143 73.143-73.143h731.429c40.521 0 73.143 32.622 73.143 73.143v585.143h-329.143c-20.261 0-36.571 16.311-36.571 36.571v329.143zM658.286 1024v-292.571h292.571zM485.157 731.355c27.204-0.196 29.11-40.953 26.16-73.237-3.694-50.82-8-81.956-10.727-110.132 27.234-79.001 67.316-127.318 131.438-167.936 22.491 2.67 44.763 3.986 66.853 3.986 55.991 0 89.71-9.399 101.157-28.087 17.161-29.267-15.594-55.311-41.143-54.235-51.276 2.122-96.923 21.666-139.995 41.728-84.187-9.143-158.866-24.942-224-47.433-58.295-99.803-104.411-149.723-138.277-149.723-30.675 3.058-41.706 20.067-36.608 34.231 19.516 50.909 64.943 84.693 107.447 107.447 5.339 3.438 9.728 2.304 13.129-3.438 46.039 78.215 97.791 179.765 121.71 259.986-9.143 31.232-15.031 61.623-17.518 91.136-4.989 51.020-0.908 95.614 40.375 95.707zM482.853 705.134c-16.754-0.532-13.904-56.003-1.719-77.714 12.153 29.389 16.601 77.279 1.719 77.714zM484.645 485.193c-21.229-62.301-43.087-104.53-73.143-160 51.383 20.553 105.472 35.986 162.231 46.299-34.616 35.745-69.363 74.14-89.088 113.701zM700.562 348.050c26.012-14.85 51.001-21.769 81.079-15.397-27.031 15.543-58.612 22.339-81.079 15.397zM333.129 267.483c-38.912-22.159-74.088-54.578-78.153-90.222 21.854 3.008 45.824 39.278 78.153 90.222z" /><glyph unicode="&#xe6a4;" d="M146.286 1024c-40.521 0-73.143-32.622-73.143-73.143v-877.714c0-40.521 32.622-73.143 73.143-73.143h731.429c40.521 0 73.143 32.622 73.143 73.143v585.143h-329.143c-20.261 0-36.571 16.311-36.571 36.571v329.143zM658.286 1024v-292.571h292.571zM292.571 512h73.143c40.521 0 73.143-32.622 73.143-73.143v-73.143c0-40.521-32.622-73.143-73.143-73.143h-73.143c-40.521 0-73.143 32.622-73.143 73.143v73.143c0 40.521 32.622 73.143 73.143 73.143zM530.286 512h256c10.13 0 18.286-8.155 18.286-18.286v-36.571c0-10.13-8.155-18.286-18.286-18.286h-256c-10.13 0-18.286 8.155-18.286 18.286v36.571c0 10.13 8.155 18.286 18.286 18.286zM530.286 365.714h256c10.13 0 18.286-8.155 18.286-18.286v-36.571c0-10.13-8.155-18.286-18.286-18.286h-256c-10.13 0-18.286 8.155-18.286 18.286v36.571c0 10.13 8.155 18.286 18.286 18.286zM237.714 219.429h548.571c10.13 0 18.286-8.155 18.286-18.286v-36.571c0-10.13-8.155-18.286-18.286-18.286h-548.571c-10.13 0-18.286 8.155-18.286 18.286v36.571c0 10.13 8.155 18.286 18.286 18.286z" /><glyph unicode="&#xe6a5;" d="M146.286 1024c-40.521 0-73.143-32.622-73.143-73.143v-877.714c0-40.521 32.622-73.143 73.143-73.143h731.429c40.521 0 73.143 32.622 73.143 73.143v585.143h-329.143c-20.261 0-36.571 16.311-36.571 36.571v329.143zM658.286 1024v-292.571h292.571zM146.286 585.143h146.286v-73.143h-146.286zM365.714 585.143h219.429v-73.143h-219.429zM658.286 585.143h219.429v-73.143h-219.429zM146.286 438.857h146.286v-73.143h-146.286zM365.714 438.857h219.429v-73.143h-219.429zM658.286 438.857h219.429v-73.143h-219.429zM146.286 292.571h146.286v-73.143h-146.286zM365.714 292.571h219.429v-73.143h-219.429zM658.286 292.571h219.429v-73.143h-219.429zM146.286 146.286h146.286v-73.143h-146.286zM365.714 146.286h219.429v-73.143h-219.429zM658.286 146.286h219.429v-73.143h-219.429z" /><glyph unicode="&#xe6a6;" d="M146.286 1024c-40.521 0-73.143-32.622-73.143-73.143v-877.714c0-40.521 32.622-73.143 73.143-73.143h731.429c40.521 0 73.143 32.622 73.143 73.143v585.143h-329.143c-20.261 0-36.571 16.311-36.571 36.571v329.143zM658.286 1024v-292.571h292.571zM475.429 512h73.143c20.261 0 36.571-16.311 36.571-36.571v-365.714c0-20.261-16.311-36.571-36.571-36.571h-73.143c-20.261 0-36.571 16.311-36.571 36.571v365.714c0 20.261 16.311 36.571 36.571 36.571zM694.857 438.857h73.143c20.261 0 36.571-16.311 36.571-36.571v-292.571c0-20.261-16.311-36.571-36.571-36.571h-73.143c-20.261 0-36.571 16.311-36.571 36.571v292.571c0 20.261 16.311 36.571 36.571 36.571zM256 292.571h73.143c20.261 0 36.571-16.311 36.571-36.571v-146.286c0-20.261-16.311-36.571-36.571-36.571h-73.143c-20.261 0-36.571 16.311-36.571 36.571v146.286c0 20.261 16.311 36.571 36.571 36.571z" /><glyph unicode="&#xe6a7;" d="M146.286 1024c-40.521 0-73.143-32.622-73.143-73.143v-877.714c0-40.521 32.622-73.143 73.143-73.143h731.429c40.521 0 73.143 32.622 73.143 73.143v585.143h-329.143c-20.261 0-36.571 16.311-36.571 36.571v329.143zM658.286 1024v-292.571h292.571zM219.429 512h585.143v-73.143h-585.143zM219.429 365.714h585.143v-73.143h-585.143zM219.429 219.429h585.143v-73.143h-585.143z" /><glyph unicode="&#xe6a8;" d="M146.286 1024c-40.521 0-73.143-32.622-73.143-73.143v-877.714c0-40.521 32.622-73.143 73.143-73.143h731.429c40.521 0 73.143 32.622 73.143 73.143v585.143h-329.143c-20.261 0-36.571 16.311-36.571 36.571v329.143zM658.286 1024v-292.571h292.571zM256 512h109.714l36.571-219.429 73.143 219.429h73.143l73.143-182.857 36.571 182.857h109.714l-73.143-365.714h-109.714l-73.143 219.429-73.143-219.429h-109.714z" /><glyph unicode="&#xe6a9;" d="M146.286 1024c-40.521 0-73.143-32.622-73.143-73.143v-877.714c0-40.521 32.622-73.143 73.143-73.143h731.429c40.521 0 73.143 32.622 73.143 73.143v585.143h-329.143c-20.261 0-36.571 16.311-36.571 36.571v329.143h-146.286v-73.143h73.143v-73.143h-73.143v-73.143h73.143v-73.143h-73.143v-73.143h73.143v-73.143h-73.143v-73.143h75.301l70.985-256c0-60.599-65.499-109.714-146.286-109.714s-146.286 49.115-146.286 109.714l73.143 256v73.143h73.143v73.143h-73.143v73.143h73.143v73.143h-73.143v73.143h73.143v73.143h-73.143v73.143zM658.286 1024v-292.571h292.571zM438.857 292.571c-40.411 0-73.143-16.384-73.143-36.571s32.731-36.571 73.143-36.571 73.143 16.384 73.143 36.571-32.731 36.571-73.143 36.571z" /><glyph unicode="&#xe6aa;" d="M402.286 951.429c-20.197-0.002-36.569-16.374-36.571-36.571v-182.857h-109.714c-32.572-0.013-48.881-39.389-25.857-62.429l256-256c14.319-14.763 35.108-15.289 51.714 0l256 256c23.024 23.040 6.715 62.416-25.857 62.429h-109.714v182.857c-0.002 20.197-16.374 36.569-36.571 36.571zM146.286 292.571c-40.521 0-73.143-32.622-73.143-73.143v-73.143c0-40.521 32.622-73.143 73.143-73.143h731.429c40.521 0 73.143 32.622 73.143 73.143v73.143c0 40.521-32.622 73.143-73.143 73.143zM841.143 219.429c20.198 0 36.571-16.374 36.571-36.571s-16.374-36.571-36.571-36.571c-20.198 0-36.571 16.374-36.571 36.571s16.374 36.571 36.571 36.571z" /><glyph unicode="&#xe6ab;" d="M511.143 914.857c-9.063-0.066-17.841-3.904-25-11.286l-256-256c-23.024-23.040-6.715-62.416 25.857-62.429h109.714v-182.857c0.002-20.197 16.374-36.569 36.571-36.571h219.429c20.197 0.002 36.569 16.374 36.571 36.571v182.857h109.714c32.572 0.013 48.881 39.389 25.857 62.429l-256 256c-8.303 7.645-17.651 11.351-26.714 11.286zM146.286 292.571c-40.521 0-73.143-32.622-73.143-73.143v-73.143c0-40.521 32.622-73.143 73.143-73.143h731.429c40.521 0 73.143 32.622 73.143 73.143v73.143c0 40.521-32.622 73.143-73.143 73.143zM841.143 219.429c20.198 0 36.571-16.374 36.571-36.571s-16.374-36.571-36.571-36.571c-20.198 0-36.571 16.374-36.571 36.571s16.374 36.571 36.571 36.571z" /><glyph unicode="&#xe6ac;" d="M182.857 877.714c-20.341-0.14-36.571-16.896-36.571-36.608v-658.286c0-20.187 16.384-36.535 36.571-36.535 5.961 0 11.593 1.426 16.567 3.95l658.066 329.033c12.069 6.144 20.224 18.469 20.224 32.695s-8.119 26.587-20.005 32.622l-658.505 329.253c-6.197 3.559-11.184 3.802-16.347 3.877z" /><glyph unicode="&#xe6ad;" d="M219.429 877.714c-40.411 0-73.143-32.731-73.143-73.143v-585.143c0-40.411 32.731-73.143 73.143-73.143h73.143c40.411 0 73.143 32.731 73.143 73.143v585.143c0 40.411-32.731 73.143-73.143 73.143zM731.429 877.714c-40.411 0-73.143-32.731-73.143-73.143v-585.143c0-40.411 32.731-73.143 73.143-73.143h73.143c40.411 0 73.143 32.731 73.143 73.143v585.143c0 40.411-32.731 73.143-73.143 73.143z" /><glyph unicode="&#xe6ae;" d="M219.429 877.714h585.143c40.411 0 73.143-32.731 73.143-73.143v-585.143c0-40.411-32.731-73.143-73.143-73.143h-585.143c-40.411 0-73.143 32.731-73.143 73.143v585.143c0 40.411 32.731 73.143 73.143 73.143z" /></font>
</defs>
</svg>
